<?xml version="1.0" standalone="no"?>
<!DOCTYPE svg PUBLIC "-//W3C//DTD SVG 1.1//EN" "http://www.w3.org/Graphics/SVG/1.1/DTD/svg11.dtd" >
<svg xmlns="http://www.w3.org/2000/svg">
<metadata>Generated by IcoMoon</metadata>
<defs>
<font id="linearicon" horiz-adv-x="1024">
<font-face units-per-em="1024" ascent="960" descent="-64" />
<missing-glyph horiz-adv-x="1024" />
<glyph unicode="&#x20;" horiz-adv-x="512" d="" />
<glyph unicode="&#xe900;" glyph-name="home" d="M1017.395 337.152l-452.045 499.61c-14.029 15.514-32.973 24.064-53.35 24.064 0 0 0 0 0 0-20.326 0-39.27-8.55-53.35-24.064l-452.045-499.61c-9.472-10.496-8.653-26.675 1.792-36.147 4.915-4.454 11.059-6.605 17.152-6.605 6.963 0 13.926 2.816 18.995 8.448l109.005 120.474v-410.522c0-42.342 34.458-76.8 76.8-76.8h563.2c42.342 0 76.8 34.458 76.8 76.8v410.522l109.005-120.474c9.472-10.496 25.651-11.315 36.147-1.792s11.315 25.651 1.792 36.147zM614.4-12.8h-204.8v230.4c0 14.131 11.469 25.6 25.6 25.6h153.6c14.131 0 25.6-11.469 25.6-25.6v-230.4zM819.2 12.8c0-14.131-11.469-25.6-25.6-25.6h-128v230.4c0 42.342-34.458 76.8-76.8 76.8h-153.6c-42.342 0-76.8-34.458-76.8-76.8v-230.4h-128c-14.131 0-25.6 11.469-25.6 25.6v467.098l291.84 322.56c4.198 4.659 9.677 7.219 15.36 7.219s11.162-2.56 15.36-7.219l291.84-322.56v-467.098z" />
<glyph unicode="&#xe901;" glyph-name="home2" d="M25.6 345.6c-6.144 0-12.288 2.202-17.152 6.605-10.496 9.472-11.315 25.651-1.792 36.147l452.045 499.61c14.029 15.514 32.973 24.064 53.35 24.064 0 0 0 0 0 0 20.326 0 39.27-8.55 53.35-24.064l452.045-499.61c9.472-10.496 8.653-26.675-1.792-36.147s-26.675-8.653-36.147 1.792l-452.045 499.61c-4.198 4.659-9.677 7.219-15.36 7.219s-11.162-2.56-15.36-7.219l-452.045-499.61c-5.069-5.581-12.032-8.448-18.995-8.448zM793.6-64h-563.2c-42.342 0-76.8 34.458-76.8 76.8v409.6c0 14.131 11.469 25.6 25.6 25.6s25.6-11.469 25.6-25.6v-409.6c0-14.131 11.469-25.6 25.6-25.6h563.2c14.131 0 25.6 11.469 25.6 25.6v409.6c0 14.131 11.469 25.6 25.6 25.6s25.6-11.469 25.6-25.6v-409.6c0-42.342-34.458-76.8-76.8-76.8z" />
<glyph unicode="&#xe902;" glyph-name="home3" d="M25.6 345.6c-6.144 0-12.288 2.202-17.152 6.605-10.496 9.472-11.315 25.651-1.792 36.147l452.045 499.61c14.029 15.514 32.973 24.064 53.35 24.064 0 0 0 0 0 0 20.326 0 39.27-8.55 53.35-24.064l452.045-499.61c9.472-10.496 8.653-26.675-1.792-36.147s-26.675-8.653-36.147 1.792l-452.045 499.61c-4.198 4.659-9.677 7.219-15.36 7.219s-11.162-2.56-15.36-7.219l-452.045-499.61c-5.069-5.581-12.032-8.448-18.995-8.448zM793.6-64h-204.8c-14.131 0-25.6 11.469-25.6 25.6v179.2h-102.4v-179.2c0-14.131-11.469-25.6-25.6-25.6h-204.8c-42.342 0-76.8 34.458-76.8 76.8v409.6c0 14.131 11.469 25.6 25.6 25.6s25.6-11.469 25.6-25.6v-409.6c0-14.131 11.469-25.6 25.6-25.6h179.2v179.2c0 14.131 11.469 25.6 25.6 25.6h153.6c14.131 0 25.6-11.469 25.6-25.6v-179.2h179.2c14.131 0 25.6 11.469 25.6 25.6v409.6c0 14.131 11.469 25.6 25.6 25.6s25.6-11.469 25.6-25.6v-409.6c0-42.342-34.458-76.8-76.8-76.8z" />
<glyph unicode="&#xe903;" glyph-name="home4" d="M25.6 345.6c-6.144 0-12.288 2.202-17.152 6.605-10.496 9.472-11.315 25.651-1.792 36.147l452.045 499.61c14.029 15.514 32.973 24.064 53.35 24.064 0 0 0 0 0 0 20.326 0 39.27-8.55 53.35-24.064l151.808-167.782-0.358 60.416c-0.051 6.81 2.662 13.363 7.424 18.176s11.315 7.526 18.176 7.526h102.4c14.131 0 25.6-11.469 25.6-25.6v-229.99l146.995-162.458c9.472-10.496 8.653-26.675-1.792-36.147s-26.675-8.653-36.147 1.792l-153.6 169.779c-4.25 4.71-6.605 10.854-6.605 17.152v214.221h-51.046l0.563-101.683c0.051-10.598-6.451-20.173-16.333-24.013s-21.146-1.178-28.262 6.707l-196.762 217.446c-4.198 4.659-9.677 7.219-15.36 7.219s-11.162-2.56-15.36-7.219l-452.045-499.61c-5.069-5.581-12.032-8.448-18.995-8.448zM793.6-64h-204.8c-14.131 0-25.6 11.469-25.6 25.6v179.2h-102.4v-179.2c0-14.131-11.469-25.6-25.6-25.6h-204.8c-42.342 0-76.8 34.458-76.8 76.8v409.6c0 14.131 11.469 25.6 25.6 25.6s25.6-11.469 25.6-25.6v-409.6c0-14.131 11.469-25.6 25.6-25.6h179.2v179.2c0 14.131 11.469 25.6 25.6 25.6h153.6c14.131 0 25.6-11.469 25.6-25.6v-179.2h179.2c14.131 0 25.6 11.469 25.6 25.6v409.6c0 14.131 11.469 25.6 25.6 25.6s25.6-11.469 25.6-25.6v-409.6c0-42.342-34.458-76.8-76.8-76.8z" />
<glyph unicode="&#xe904;" glyph-name="home5" d="M25.6 345.6c-6.144 0-12.288 2.202-17.152 6.605-10.496 9.472-11.315 25.651-1.792 36.147l452.045 499.61c14.029 15.514 32.973 24.064 53.35 24.064 0 0 0 0 0 0 20.326 0 39.27-8.55 53.35-24.064l151.808-167.782-0.358 60.416c-0.051 6.81 2.662 13.363 7.424 18.176s11.315 7.526 18.176 7.526h102.4c14.131 0 25.6-11.469 25.6-25.6v-229.99l146.995-162.458c9.472-10.496 8.653-26.675-1.792-36.147s-26.675-8.653-36.147 1.792l-153.6 169.779c-4.25 4.71-6.605 10.854-6.605 17.152v214.221h-51.046l0.563-101.683c0.051-10.598-6.451-20.173-16.333-24.013s-21.146-1.178-28.262 6.707l-196.762 217.446c-4.198 4.659-9.677 7.219-15.36 7.219s-11.162-2.56-15.36-7.219l-452.045-499.61c-5.069-5.581-12.032-8.448-18.995-8.448zM793.6-64h-563.2c-42.342 0-76.8 34.458-76.8 76.8v409.6c0 14.131 11.469 25.6 25.6 25.6s25.6-11.469 25.6-25.6v-409.6c0-14.131 11.469-25.6 25.6-25.6h563.2c14.131 0 25.6 11.469 25.6 25.6v409.6c0 14.131 11.469 25.6 25.6 25.6s25.6-11.469 25.6-25.6v-409.6c0-42.342-34.458-76.8-76.8-76.8z" />
<glyph unicode="&#xe905;" glyph-name="home6" d="M742.4-64h-153.6c-14.131 0-25.6 11.469-25.6 25.6v179.2h-102.4v-179.2c0-14.131-11.469-25.6-25.6-25.6h-153.6c-42.342 0-76.8 34.458-76.8 76.8v313.498l-57.805-63.898c-9.472-10.445-25.549-11.315-36.045-1.894l-102.4 91.597c-5.069 4.557-8.141 10.906-8.499 17.715s1.997 13.466 6.605 18.534l452.045 499.61c14.029 15.514 32.973 24.064 53.35 24.064s39.27-8.55 53.35-24.064l452.045-499.61c4.557-5.069 6.963-11.725 6.605-18.534s-3.43-13.21-8.499-17.715l-102.4-91.597c-10.496-9.37-26.624-8.55-36.045 1.894l-57.805 63.898v-313.498c0-42.342-34.458-76.8-76.8-76.8zM614.4-12.8h128c14.131 0 25.6 11.469 25.6 25.6v379.955c0 10.598 6.502 20.070 16.384 23.91s21.094 1.126 28.211-6.707l85.299-94.31 64.256 57.498-434.79 480.563c-4.198 4.659-9.677 7.219-15.36 7.219s-11.162-2.56-15.36-7.219l-434.79-480.563 64.256-57.498 85.299 94.31c7.117 7.834 18.33 10.496 28.211 6.707s16.384-13.312 16.384-23.91v-379.955c0-14.131 11.469-25.6 25.6-25.6h128v179.2c0 14.131 11.469 25.6 25.6 25.6h153.6c14.131 0 25.6-11.469 25.6-25.6v-179.2z" />
<glyph unicode="&#xe906;" glyph-name="bathtub" d="M844.8-64h-51.2c-14.131 0-25.6 11.469-25.6 25.6s11.469 25.6 25.6 25.6h51.2c14.131 0 25.6-11.469 25.6-25.6s-11.469-25.6-25.6-25.6zM230.4-64h-51.2c-14.131 0-25.6 11.469-25.6 25.6s11.469 25.6 25.6 25.6h51.2c14.131 0 25.6-11.469 25.6-25.6s-11.469-25.6-25.6-25.6zM1024 320c0 42.342-34.458 76.8-76.8 76.8h-793.6v486.4c0 14.131 11.469 25.6 25.6 25.6h76.8c7.27 0 20.429-5.427 25.6-10.598l6.451-6.451c-47.565-65.024-42.035-157.082 16.691-215.808 4.813-4.813 11.315-7.475 18.125-7.475s13.312 2.714 18.125 7.475l199.117 199.117c9.984 9.984 9.984 26.214 0 36.198-31.437 31.437-73.216 48.742-117.658 48.742-35.789 0-69.837-11.213-98.202-32l-6.4 6.4c-14.848 14.848-40.806 25.6-61.798 25.6h-76.8c-42.342 0-76.8-34.458-76.8-76.8v-486.4h-25.6c-42.342 0-76.8-34.458-76.8-76.8 0-33.382 21.402-61.85 51.2-72.397v-132.403c0-70.554 57.446-128 128-128h665.6c70.554 0 128 57.446 128 128v132.403c29.798 10.547 51.2 39.014 51.2 72.397zM483.738 891.136l-158.874-158.874c-27.955 44.493-22.63 104.090 16.077 142.797 21.76 21.76 50.688 33.741 81.459 33.741 22.067 0 43.162-6.144 61.338-17.664zM844.8 38.4h-665.6c-42.342 0-76.8 34.458-76.8 76.8v128h819.2v-128c0-42.342-34.458-76.8-76.8-76.8zM947.2 294.4h-870.4c-14.131 0-25.6 11.469-25.6 25.6s11.469 25.6 25.6 25.6h870.4c14.131 0 25.6-11.469 25.6-25.6s-11.469-25.6-25.6-25.6zM512 627.2c0-14.131-11.469-25.6-25.6-25.6s-25.6 11.469-25.6 25.6c0 14.131 11.469 25.6 25.6 25.6s25.6-11.469 25.6-25.6zM512 729.6c0-14.131-11.469-25.6-25.6-25.6s-25.6 11.469-25.6 25.6c0 14.131 11.469 25.6 25.6 25.6s25.6-11.469 25.6-25.6zM614.4 729.6c0-14.131-11.469-25.6-25.6-25.6s-25.6 11.469-25.6 25.6c0 14.131 11.469 25.6 25.6 25.6s25.6-11.469 25.6-25.6zM614.4 627.2c0-14.131-11.469-25.6-25.6-25.6s-25.6 11.469-25.6 25.6c0 14.131 11.469 25.6 25.6 25.6s25.6-11.469 25.6-25.6zM716.8 729.6c0-14.131-11.469-25.6-25.6-25.6s-25.6 11.469-25.6 25.6c0 14.131 11.469 25.6 25.6 25.6s25.6-11.469 25.6-25.6zM512 524.8c0-14.131-11.469-25.6-25.6-25.6s-25.6 11.469-25.6 25.6c0 14.131 11.469 25.6 25.6 25.6s25.6-11.469 25.6-25.6zM716.8 627.2c0-14.131-11.469-25.6-25.6-25.6s-25.6 11.469-25.6 25.6c0 14.131 11.469 25.6 25.6 25.6s25.6-11.469 25.6-25.6zM614.4 524.8c0-14.131-11.469-25.6-25.6-25.6s-25.6 11.469-25.6 25.6c0 14.131 11.469 25.6 25.6 25.6s25.6-11.469 25.6-25.6z" />
<glyph unicode="&#xe907;" glyph-name="toothbrush" d="M76.8 243.2c-14.131 0-25.6 11.469-25.6 25.6v153.6c0 14.131 11.469 25.6 25.6 25.6s25.6-11.469 25.6-25.6v-153.6c0-14.131-11.469-25.6-25.6-25.6zM179.2 243.2c-14.131 0-25.6 11.469-25.6 25.6v153.6c0 14.131 11.469 25.6 25.6 25.6s25.6-11.469 25.6-25.6v-153.6c0-14.131-11.469-25.6-25.6-25.6zM281.6 243.2c-14.131 0-25.6 11.469-25.6 25.6v153.6c0 14.131 11.469 25.6 25.6 25.6s25.6-11.469 25.6-25.6v-153.6c0-14.131-11.469-25.6-25.6-25.6zM384 243.2c-14.131 0-25.6 11.469-25.6 25.6v153.6c0 14.131 11.469 25.6 25.6 25.6s25.6-11.469 25.6-25.6v-153.6c0-14.131-11.469-25.6-25.6-25.6zM998.4 38.4h-921.6c-42.342 0-76.8 34.458-76.8 76.8s34.458 76.8 76.8 76.8h921.6c14.131 0 25.6-11.469 25.6-25.6s-11.469-25.6-25.6-25.6h-921.6c-14.131 0-25.6-11.469-25.6-25.6s11.469-25.6 25.6-25.6h921.6c14.131 0 25.6-11.469 25.6-25.6s-11.469-25.6-25.6-25.6zM486.4 243.2c-14.131 0-25.6 11.469-25.6 25.6v153.6c0 14.131 11.469 25.6 25.6 25.6s25.6-11.469 25.6-25.6v-153.6c0-14.131-11.469-25.6-25.6-25.6zM460.8 499.2h-307.2c-84.685 0-153.6 68.915-153.6 153.6s68.915 153.6 153.6 153.6h25.6c14.131 0 25.6-11.469 25.6-25.6s-11.469-25.6-25.6-25.6c-14.131 0-25.6-11.469-25.6-25.6s11.469-25.6 25.6-25.6h281.6c56.474 0 102.4-45.926 102.4-102.4s-45.926-102.4-102.4-102.4zM103.424 742.042c-31.13-17.562-52.224-50.995-52.224-89.242 0-56.474 45.926-102.4 102.4-102.4h307.2c28.211 0 51.2 22.989 51.2 51.2s-22.989 51.2-51.2 51.2h-281.6c-42.342 0-76.8 34.458-76.8 76.8 0 4.25 0.358 8.397 1.024 12.442z" />
<glyph unicode="&#xe908;" glyph-name="bed" d="M896 38.4h-51.2c-14.131 0-25.6 11.469-25.6 25.6s11.469 25.6 25.6 25.6h51.2c14.131 0 25.6-11.469 25.6-25.6s-11.469-25.6-25.6-25.6zM128 38.4h-51.2c-14.131 0-25.6 11.469-25.6 25.6s11.469 25.6 25.6 25.6h51.2c14.131 0 25.6-11.469 25.6-25.6s-11.469-25.6-25.6-25.6zM955.29 376.678l-121.242 363.674c-10.189 30.515-39.322 55.603-71.066 63.488-1.126 4.864-2.355 9.523-3.789 13.824-11.622 34.816-31.539 39.987-42.394 39.987h-204.8c-6.502 0-16.282-1.894-25.6-10.906-9.318 9.011-19.098 10.906-25.6 10.906h-204.8c-10.854 0-30.771-5.222-42.394-39.987-1.434-4.301-2.714-8.909-3.789-13.824-31.795-7.885-60.928-32.922-71.066-63.488l-121.242-363.674c-9.83-29.44-17.51-76.851-17.51-107.878v-102.4c0-42.342 34.458-76.8 76.8-76.8h819.2c42.342 0 76.8 34.458 76.8 76.8v102.4c0 31.027-7.68 78.438-17.51 107.878zM520.038 806.4h188.723c3.584-8.038 8.038-26.317 8.038-51.2s-4.454-43.162-8.038-51.2h-188.723c-3.584 8.038-8.038 26.317-8.038 51.2s4.454 43.162 8.038 51.2zM264.038 806.4h188.723c3.584-8.038 8.038-26.317 8.038-51.2s-4.454-43.162-8.038-51.2h-188.723c-3.584 8.038-8.038 26.317-8.038 51.2s4.454 43.162 8.038 51.2zM187.29 724.122c2.765 8.294 9.472 16.23 17.664 21.965 0.717-19.866 3.686-38.502 8.653-53.299 11.622-34.816 31.539-39.987 42.394-39.987h204.8c6.502 0 16.282 1.894 25.6 10.906 9.318-9.011 19.098-10.906 25.6-10.906h204.8c10.854 0 30.771 5.222 42.394 39.987 4.915 14.797 7.936 33.485 8.653 53.299 8.192-5.786 14.899-13.67 17.664-21.965l40.858-122.522h-679.885l40.858 122.522zM129.382 550.4h714.035l63.283-189.901c1.638-4.864 3.174-10.445 4.659-16.435-4.966 1.024-10.086 1.536-15.36 1.536h-819.2c-5.274 0-10.394-0.512-15.36-1.536 1.485 5.99 3.021 11.571 4.659 16.435l63.334 189.901zM921.6 166.4c0-14.131-11.469-25.6-25.6-25.6h-819.2c-14.131 0-25.6 11.469-25.6 25.6v102.4c0 14.131 11.469 25.6 25.6 25.6h819.2c14.131 0 25.6-11.469 25.6-25.6v-102.4z" />
<glyph unicode="&#xe909;" glyph-name="couch" d="M230.4-12.8h-51.2c-14.131 0-25.6 11.469-25.6 25.6s11.469 25.6 25.6 25.6h51.2c14.131 0 25.6-11.469 25.6-25.6s-11.469-25.6-25.6-25.6zM844.8-12.8h-51.2c-14.131 0-25.6 11.469-25.6 25.6s11.469 25.6 25.6 25.6h51.2c14.131 0 25.6-11.469 25.6-25.6s-11.469-25.6-25.6-25.6zM921.242 599.091c-3.942 128.614-41.472 210.893-117.35 257.894-69.734 43.162-163.379 51.814-291.891 51.814s-222.157-8.653-291.891-51.814c-75.878-46.95-113.408-129.229-117.35-257.894-58.522-11.776-102.758-63.539-102.758-125.491 0-61.798 44.032-113.51 102.4-125.44v-232.96c0-42.342 34.458-76.8 76.8-76.8h665.6c42.342 0 76.8 34.458 76.8 76.8v232.96c58.368 11.878 102.4 63.59 102.4 125.44 0 61.952-44.237 113.715-102.758 125.491zM247.091 813.414c59.392 36.762 145.408 44.186 264.909 44.186s205.517-7.373 264.909-44.186c59.699-36.966 89.549-105.421 93.082-214.477-58.163-12.032-102.042-63.642-102.042-125.338v-76.8h-512v76.8c0 61.696-43.878 113.306-102.042 125.338 3.584 109.056 33.434 177.51 93.082 214.477zM256 345.6h512v-76.8c0-14.131-11.469-25.6-25.6-25.6h-460.8c-14.131 0-25.6 11.469-25.6 25.6v76.8zM896 396.8c-14.131 0-25.6-11.469-25.6-25.6v-256c0-14.131-11.469-25.6-25.6-25.6h-665.6c-14.131 0-25.6 11.469-25.6 25.6v256c0 14.131-11.469 25.6-25.6 25.6-42.342 0-76.8 34.458-76.8 76.8s34.458 76.8 76.8 76.8 76.8-34.458 76.8-76.8v-204.8c0-42.342 34.458-76.8 76.8-76.8h460.8c42.342 0 76.8 34.458 76.8 76.8v204.8c0 42.342 34.458 76.8 76.8 76.8s76.8-34.458 76.8-76.8c0-42.342-34.458-76.8-76.8-76.8zM793.6 652.8h-25.6c-56.474 0-102.4 45.926-102.4 102.4v25.6c0 14.131-11.469 25.6-25.6 25.6s-25.6-11.469-25.6-25.6v-25.6c0-56.474-45.926-102.4-102.4-102.4s-102.4 45.926-102.4 102.4v25.6c0 14.131-11.469 25.6-25.6 25.6s-25.6-11.469-25.6-25.6v-25.6c0-56.474-45.926-102.4-102.4-102.4h-25.6c-14.131 0-25.6-11.469-25.6-25.6s11.469-25.6 25.6-25.6h25.6c56.474 0 102.4-45.926 102.4-102.4v-25.6c0-14.131 11.469-25.6 25.6-25.6s25.6 11.469 25.6 25.6v25.6c0 56.474 45.926 102.4 102.4 102.4s102.4-45.926 102.4-102.4v-25.6c0-14.131 11.469-25.6 25.6-25.6s25.6 11.469 25.6 25.6v25.6c0 56.474 45.926 102.4 102.4 102.4h25.6c14.131 0 25.6 11.469 25.6 25.6s-11.469 25.6-25.6 25.6zM384 583.987c-11.366 17.101-26.061 31.795-43.213 43.213 17.101 11.366 31.795 26.061 43.213 43.213 11.366-17.101 26.061-31.795 43.213-43.213-17.101-11.366-31.846-26.061-43.213-43.213zM640 583.987c-11.366 17.101-26.061 31.795-43.213 43.213 17.101 11.366 31.846 26.061 43.213 43.213 11.366-17.101 26.061-31.795 43.213-43.213-17.101-11.366-31.846-26.061-43.213-43.213z" />
<glyph unicode="&#xe90a;" glyph-name="chair" d="M819.2 268.8v25.6c0 21.914-16.435 58.010-32.717 82.381l-45.619 68.403c-12.39 18.586-21.043 54.272-18.586 76.442l34.253 308.122c3.84 34.406-6.298 67.021-28.467 91.802s-53.453 38.4-88.064 38.4h-307.2c-34.611 0-65.894-13.67-88.064-38.4s-32.307-57.395-28.467-91.802l34.253-308.122c2.458-22.17-6.246-57.907-18.586-76.442l-45.619-68.403c-16.23-24.371-32.717-60.518-32.717-82.381v-25.6c0-28.211 15.258-52.838 37.99-66.202-16.998-36.762-37.99-108.851-37.99-240.998 0-14.131 11.469-25.6 25.6-25.6s25.6 11.469 25.6 25.6c0 146.893 27.136 209.971 38.912 230.4h63.488v-128c0-14.131 11.469-25.6 25.6-25.6s25.6 11.469 25.6 25.6v128h256v-128c0-14.131 11.469-25.6 25.6-25.6s25.6 11.469 25.6 25.6v128h63.488c11.776-20.429 38.912-83.507 38.912-230.4 0-14.131 11.469-25.6 25.6-25.6 0 0 0 0 0 0 14.131 0 25.6 11.469 25.6 25.6 0 132.096-20.992 204.237-37.99 240.998 22.682 13.363 37.99 38.042 37.99 66.202zM742.4 243.2h-512c-14.131 0-25.6 11.469-25.6 25.6s11.469 25.6 25.6 25.6h512c14.131 0 25.6-11.469 25.6-25.6s-11.469-25.6-25.6-25.6zM274.483 416.819c18.842 28.262 30.618 76.8 26.88 110.49l-34.253 308.122c-2.202 19.763 3.379 38.195 15.718 51.968s30.054 21.35 49.92 21.35h307.2c19.866 0 37.581-7.578 49.92-21.35s17.92-32.256 15.718-51.968l-34.253-308.122c-3.738-33.741 8.038-82.278 26.88-110.541l45.619-68.403c0.614-0.973 1.28-1.946 1.894-2.867-1.126 0.051-2.253 0.102-3.379 0.102h-512c-1.126 0-2.253-0.051-3.379-0.102 0.614 0.973 1.229 1.946 1.894 2.867l45.619 68.403zM614.4 448h-256c-14.131 0-25.6 11.469-25.6 25.6s11.469 25.6 25.6 25.6h256c14.131 0 25.6-11.469 25.6-25.6s-11.469-25.6-25.6-25.6zM640 704h-25.6c-56.474 0-102.4 45.926-102.4 102.4v25.6c0 14.131-11.469 25.6-25.6 25.6s-25.6-11.469-25.6-25.6v-25.6c0-56.474-45.926-102.4-102.4-102.4h-25.6c-14.131 0-25.6-11.469-25.6-25.6s11.469-25.6 25.6-25.6h25.6c56.474 0 102.4-45.926 102.4-102.4v-25.6c0-14.131 11.469-25.6 25.6-25.6s25.6 11.469 25.6 25.6v25.6c0 56.474 45.926 102.4 102.4 102.4h25.6c14.131 0 25.6 11.469 25.6 25.6s-11.469 25.6-25.6 25.6zM486.4 635.187c-11.366 17.101-26.061 31.795-43.213 43.213 17.101 11.366 31.795 26.061 43.213 43.213 11.366-17.101 26.061-31.795 43.213-43.213-17.101-11.366-31.846-26.061-43.213-43.213z" />
<glyph unicode="&#xe90b;" glyph-name="city" d="M460.8 448h51.2v-51.2h-51.2v51.2zM563.2 448h51.2v-51.2h-51.2v51.2zM665.6 448h51.2v-51.2h-51.2v51.2zM768 448h51.2v-51.2h-51.2v51.2zM460.8 294.4h51.2v-51.2h-51.2v51.2zM563.2 294.4h51.2v-51.2h-51.2v51.2zM665.6 294.4h51.2v-51.2h-51.2v51.2zM768 294.4h51.2v-51.2h-51.2v51.2zM460.8 140.8h51.2v-51.2h-51.2v51.2zM563.2 140.8h51.2v-51.2h-51.2v51.2zM665.6 140.8h51.2v-51.2h-51.2v51.2zM768 140.8h51.2v-51.2h-51.2v51.2zM896 601.6h-25.6v128c0 6.81-2.714 13.312-7.475 18.125l-94.925 94.925v91.802c0 14.131-11.469 25.6-25.6 25.6s-25.6-11.469-25.6-25.6v-91.802l-94.925-94.925c-4.813-4.813-7.475-11.315-7.475-18.125v-25.6h-102.4v128c0 14.131-11.469 25.6-25.6 25.6h-409.6c-14.131 0-25.6-11.469-25.6-25.6v-870.4c0-14.131 11.469-25.6 25.6-25.6h819.2c14.131 0 25.6 11.469 25.6 25.6v614.4c0 14.131-11.469 25.6-25.6 25.6zM665.6 719.002l76.8 76.8 76.8-76.8v-117.402h-51.2v76.8c0 14.131-11.469 25.6-25.6 25.6h-76.8v15.002zM716.8 652.8v-51.2h-204.8v51.2h204.8zM358.4 576v-588.8h-256v819.2h358.4v-204.8h-76.8c-14.131 0-25.6-11.469-25.6-25.6zM870.4-12.8h-460.8v563.2h460.8v-563.2zM358.4 755.2h51.2v-102.4h-51.2v102.4zM256 755.2h51.2v-102.4h-51.2v102.4zM153.6 755.2h51.2v-102.4h-51.2v102.4zM153.6 601.6h51.2v-102.4h-51.2v102.4zM256 601.6h51.2v-102.4h-51.2v102.4zM153.6 448h51.2v-102.4h-51.2v102.4zM256 448h51.2v-102.4h-51.2v102.4zM153.6 294.4h51.2v-102.4h-51.2v102.4zM256 294.4h51.2v-102.4h-51.2v102.4zM153.6 140.8h51.2v-102.4h-51.2v102.4zM256 140.8h51.2v-102.4h-51.2v102.4z" />
<glyph unicode="&#xe90c;" glyph-name="apartment" d="M716.8 652.8h51.2v-51.2h-51.2v51.2zM716.8 550.4h51.2v-51.2h-51.2v51.2zM716.8 448h51.2v-51.2h-51.2v51.2zM716.8 345.6h51.2v-51.2h-51.2v51.2zM716.8 140.8h51.2v-51.2h-51.2v51.2zM716.8 243.2h51.2v-51.2h-51.2v51.2zM307.2 652.8h51.2v-51.2h-51.2v51.2zM307.2 550.4h51.2v-51.2h-51.2v51.2zM307.2 448h51.2v-51.2h-51.2v51.2zM307.2 345.6h51.2v-51.2h-51.2v51.2zM307.2 140.8h51.2v-51.2h-51.2v51.2zM307.2 243.2h51.2v-51.2h-51.2v51.2zM204.8 652.8h51.2v-51.2h-51.2v51.2zM204.8 550.4h51.2v-51.2h-51.2v51.2zM204.8 448h51.2v-51.2h-51.2v51.2zM204.8 345.6h51.2v-51.2h-51.2v51.2zM204.8 140.8h51.2v-51.2h-51.2v51.2zM204.8 243.2h51.2v-51.2h-51.2v51.2zM409.6 652.8h51.2v-51.2h-51.2v51.2zM409.6 550.4h51.2v-51.2h-51.2v51.2zM409.6 448h51.2v-51.2h-51.2v51.2zM409.6 345.6h51.2v-51.2h-51.2v51.2zM409.6 140.8h51.2v-51.2h-51.2v51.2zM409.6 243.2h51.2v-51.2h-51.2v51.2zM947.2-12.8h-25.6v691.2c0 39.066-29.030 79.309-66.099 91.699l-241.101 80.384v83.968c0 8.090-3.84 15.718-10.342 20.531s-14.899 6.298-22.63 3.994l-462.95-138.906c-37.734-11.315-67.277-51.046-67.277-90.419v-742.4h-25.6c-14.131 0-25.6-11.469-25.6-25.6s11.469-25.6 25.6-25.6h921.6c14.131 0 25.6 11.469 25.6 25.6s-11.469 25.6-25.6 25.6zM839.322 721.51c16.282-5.427 31.078-25.958 31.078-43.11v-691.2h-256v809.267l224.922-74.957zM102.4 729.6c0 16.845 14.694 36.557 30.822 41.37l429.978 129.024v-912.794h-460.8v742.4z" />
<glyph unicode="&#xe90d;" glyph-name="pencil" d="M978.125 914.125c-28.774 28.774-67.021 44.595-107.725 44.595s-78.95-15.821-107.725-44.595l-652.8-652.8c-2.662-2.662-4.659-5.837-5.939-9.37l-102.4-281.6c-3.379-9.37-1.075-19.814 5.939-26.829 4.864-4.864 11.418-7.475 18.125-7.475 2.918 0 5.888 0.512 8.755 1.536l281.6 102.4c3.533 1.28 6.707 3.328 9.37 5.939l652.8 652.8c28.774 28.774 44.595 67.021 44.595 107.725s-15.821 78.95-44.595 107.725zM293.12 86.118l-224.717-81.715 81.715 224.717 566.682 566.682 143.002-143.002-566.682-566.682zM941.875 734.925l-45.875-45.875-143.002 143.002 45.875 45.875c19.098 19.098 44.493 29.594 71.475 29.594s52.378-10.496 71.475-29.594c19.098-19.098 29.594-44.493 29.594-71.475s-10.496-52.378-29.594-71.475z" />
<glyph unicode="&#xe90e;" glyph-name="pencil2" d="M25.6-64c-6.656 0-13.21 2.611-18.125 7.475-7.014 7.014-9.37 17.51-5.939 26.829l102.4 281.6c1.28 3.533 3.328 6.707 5.939 9.37l691.2 691.2c9.984 9.984 26.214 9.984 36.198 0l179.2-179.2c9.984-9.984 9.984-26.214 0-36.198l-691.2-691.2c-2.662-2.662-5.837-4.659-9.37-5.939l-281.6-102.4c-2.867-1.024-5.786-1.536-8.755-1.536zM150.118 229.12l-81.715-224.717 224.717 81.715 669.082 669.082-143.002 143.002-669.082-669.082z" />
<glyph unicode="&#xe90f;" glyph-name="pen" d="M1002.086 938.086c-14.336 14.336-33.536 21.555-57.19 21.555-38.554 0-90.368-20.173-154.675-60.109-20.582 21.76-59.75 55.142-109.107 59.136-39.373 3.174-76.544-12.339-110.438-46.234-71.936-71.936-107.366-159.795-130.816-217.907-7.987-19.763-17.869-44.339-22.784-49.408-1.69-1.69-6.758-6.758-15.565 0.666-10.035 9.472-25.856 9.267-35.635-0.512-9.984-9.984-9.984-26.214 0-36.198 4.198-4.198 15.002-12.339 28.774-16.179 5.53-1.536 11.059-2.304 16.486-2.304 6.502 0 12.851 1.126 18.893 3.328-7.014-7.219-14.029-14.438-21.043-21.76-180.070-188.058-381.952-446.106-408.678-606.31-1.382-8.141 1.28-16.486 7.168-22.323 4.864-4.864 11.366-7.475 18.125-7.475 1.382 0 2.816 0.102 4.198 0.358 66.97 11.162 155.238 53.555 262.4 125.952 94.822 64.051 199.987 148.89 304.128 245.299 101.581 94.054 194.253 191.59 268.032 282.163 55.091 67.635 125.85 164.25 150.221 240.23 15.411 48.077 11.213 84.429-12.493 108.134zM606.925 876.288c23.040 23.040 45.875 33.331 69.888 31.437 28.723-2.253 53.914-21.402 69.888-36.864-12.646-8.806-25.651-18.176-39.066-28.262-72.909-54.733-155.648-127.386-238.080-208.947 5.478 11.162 11.059 24.986 17.869 41.779 21.862 54.272 54.938 136.294 119.501 200.858zM155.443 179.558l88.166-88.166c-69.888-45.67-132.301-78.131-182.784-94.566 16.486 50.534 49.050 112.947 94.618 182.733zM561.613 345.139c-96.051-88.883-189.952-165.274-274.79-224.563l-102.144 102.144c67.635 96.87 157.235 205.21 261.376 313.958 120.934 126.31 240.384 230.656 335.974 296.294l114.893-114.893c-73.267-106.803-193.843-241.971-335.309-372.941zM965.837 845.568c-7.578-23.654-21.402-51.866-40.499-83.507l-99.379 99.379c50.074 30.259 91.136 47.002 118.989 47.002 14.387 0 19.354-4.966 20.992-6.554 11.878-11.878 5.069-40.397-0.051-56.32z" />
<glyph unicode="&#xe910;" glyph-name="pencil3" d="M998.4 652.8c0 141.158-114.842 256-256 256-38.554 0-75.674-8.397-110.234-24.883-2.714-1.28-5.069-3.021-7.066-5.018v0l-540.826-540.826c-3.942-3.942-6.451-9.011-7.219-14.49l-51.2-358.4c-1.126-7.987 1.536-16.026 7.219-21.709 4.813-4.813 11.366-7.475 18.074-7.475 1.178 0 2.406 0.102 3.635 0.256l358.4 51.2c5.478 0.768 10.547 3.328 14.49 7.219l540.416 540.416c0 0 0.051 0.051 0.051 0.051l0.358 0.358c1.997 1.997 3.686 4.352 5.018 7.066 16.538 34.56 24.883 71.68 24.883 110.234zM947.2 652.8c0-29.44-6.093-57.805-18.125-84.326l-58.88-58.88c-5.376 147.046-123.955 265.626-271.002 271.002l58.88 58.88c26.522 12.032 54.886 18.125 84.326 18.125 112.947 0 204.8-91.853 204.8-204.8zM102.656 140.8l21.658 151.757c9.677 1.229 19.456 1.843 29.286 1.843 127.027 0 230.4-103.373 230.4-230.4 0-9.779-0.614-19.61-1.843-29.286l-151.757-21.658c-0.154 70.349-57.344 127.59-127.744 127.744zM543.795 725.197c14.746 2.918 29.85 4.403 45.005 4.403 54.323 0 104.294-18.893 143.718-50.483l-398.848-398.848c-46.387 38.656-105.318 62.72-169.728 65.075l379.802 379.802zM369.92 244.122l398.848 398.848c31.539-39.424 50.483-89.395 50.483-143.718 0-15.155-1.485-30.259-4.403-45.005l-379.802-379.802c-2.355 64.41-26.419 123.341-65.075 169.728zM95.283 89.242c2.355 0.205 4.71 0.358 7.117 0.358 42.342 0 76.8-34.458 76.8-76.8 0-2.406-0.102-4.762-0.358-7.117l-97.485-13.926 13.926 97.485z" />
<glyph unicode="&#xe911;" glyph-name="eraser" d="M1009.408 606.054c-1.331 7.936-3.942 15.616-7.936 22.835-5.837 10.701-14.131 19.456-24.166 25.907-0.102 0.051-0.154 0.102-0.256 0.154-0.512 0.358-1.075 0.666-1.638 1.024-4.915 3.021-10.496 5.53-16.742 7.424-1.229 0.358-2.509 0.717-3.789 1.075l-310.272 77.568c-8.294 2.048-17.408 3.123-27.136 3.123-30.669 0-64-10.496-84.89-26.778l-379.955-295.526c-26.112-20.275-54.733-60.774-65.178-92.109l-70.042-210.074c-6.605-19.763-4.813-40.499 5.018-58.368s26.368-30.515 46.541-35.533l310.272-77.568c8.294-2.048 17.408-3.123 27.136-3.123 24.269 0 50.227 6.605 70.349 17.459 4.659 2.355 9.523 5.427 14.541 9.318l379.955 295.526c26.112 20.275 54.733 60.774 65.178 92.109l70.042 210.074c4.71 14.080 5.683 25.805 2.918 35.533zM617.574 693.914c5.478 0 10.547-0.563 14.694-1.587l308.89-77.21-378.88-294.656c-12.083-9.421-34.099-15.974-53.453-15.974-5.478 0-10.547 0.563-14.694 1.587l-308.89 77.21 378.88 294.656c12.083 9.421 34.099 15.974 53.453 15.974zM67.379 86.938c-2.867 5.222-3.328 11.469-1.331 17.562l70.042 210.074c4.71 14.131 20.89 23.040 35.379 19.405 0 0 0 0 0 0l310.272-77.568c6.195-1.536 11.213-5.274 14.080-10.496s3.328-11.469 1.331-17.562l-70.042-210.074c-4.71-14.131-20.941-23.040-35.379-19.405l-52.736 13.158c0 0 0 0 0 0l-257.536 64.358c-6.195 1.536-11.213 5.274-14.080 10.547zM839.885 308.787l-353.638-275.046 59.494 178.432c7.322 21.965 29.747 53.709 48.026 67.891l353.638 275.046-59.494-178.432c-7.322-21.965-29.747-53.658-48.026-67.891z" />
<glyph unicode="&#xe912;" glyph-name="pencil4" d="M179.2 89.6c-6.656 0-13.21 2.611-18.125 7.526-7.014 7.014-9.37 17.51-5.939 26.829l102.4 281.6c1.28 3.533 3.328 6.707 5.939 9.37l537.6 537.6c9.984 9.984 26.214 9.984 36.198 0l179.2-179.2c9.984-9.984 9.984-26.214 0-36.198l-537.6-537.6c-2.662-2.662-5.837-4.659-9.37-5.939l-281.6-102.4c-2.867-1.024-5.786-1.536-8.755-1.536zM303.718 382.72l-81.715-224.717 224.717 81.715 515.482 515.482-143.002 143.002-515.482-515.482zM896-64h-819.2c-42.342 0-76.8 34.458-76.8 76.8v819.2c0 42.342 34.458 76.8 76.8 76.8h512c14.131 0 25.6-11.469 25.6-25.6s-11.469-25.6-25.6-25.6h-512c-14.131 0-25.6-11.469-25.6-25.6v-819.2c0-14.131 11.469-25.6 25.6-25.6h819.2c14.131 0 25.6 11.469 25.6 25.6v512c0 14.131 11.469 25.6 25.6 25.6s25.6-11.469 25.6-25.6v-512c0-42.342-34.458-76.8-76.8-76.8z" />
<glyph unicode="&#xe913;" glyph-name="pencil5" d="M978.074 914.125c-28.774 28.774-67.021 44.595-107.674 44.595s-78.95-15.821-107.674-44.595l-499.2-499.2c-2.662-2.662-4.659-5.837-5.939-9.37l-102.4-281.6c-3.379-9.37-1.075-19.814 5.939-26.829 4.864-4.915 11.418-7.526 18.125-7.526 2.918 0 5.888 0.512 8.755 1.536l281.6 102.4c3.533 1.28 6.707 3.328 9.37 5.939l499.2 499.2c28.774 28.774 44.595 67.021 44.595 107.725s-15.821 78.95-44.595 107.725zM446.72 239.718l-224.717-81.715 81.715 224.717 413.082 413.082 143.002-143.002-413.082-413.082zM941.926 734.925l-45.926-45.875-143.002 143.002 45.926 45.875c19.098 19.098 44.493 29.594 71.475 29.594s52.378-10.496 71.526-29.594c19.098-19.098 29.594-44.493 29.594-71.475s-10.496-52.378-29.594-71.475zM896-64h-819.2c-42.342 0-76.8 34.458-76.8 76.8v819.2c0 42.342 34.458 76.8 76.8 76.8h512c14.131 0 25.6-11.469 25.6-25.6s-11.469-25.6-25.6-25.6h-512c-14.131 0-25.6-11.469-25.6-25.6v-819.2c0-14.131 11.469-25.6 25.6-25.6h819.2c14.131 0 25.6 11.469 25.6 25.6v512c0 14.131 11.469 25.6 25.6 25.6s25.6-11.469 25.6-25.6v-512c0-42.342-34.458-76.8-76.8-76.8z" />
<glyph unicode="&#xe914;" glyph-name="feather" d="M25.6-64c-0.461 0-0.922 0-1.382 0.051-13.926 0.717-24.678 12.442-24.269 26.368 6.042 187.136 56.115 355.328 148.838 499.814 76.134 118.63 180.736 221.235 310.886 304.896 124.211 79.821 247.296 126.362 328.755 151.347 93.542 28.672 172.8 41.523 209.92 41.523 14.131 0 25.6-11.469 25.6-25.6 0-61.798-59.085-120.883-84.275-146.125-41.011-41.011-116.48-67.226-189.491-92.57-22.886-7.936-46.029-15.974-67.635-24.32 72.192 6.298 143.667 7.014 172.39 7.014 4.506 0 6.912 0 6.912 0 9.523-0.102 18.176-5.427 22.528-13.875s3.686-18.586-1.792-26.419c-54.835-78.438-121.651-139.52-204.339-186.778-38.758-22.17-81.664-32.461-135.066-32.461-31.539 0-63.59 3.584-94.566 7.014-30.362 3.379-61.747 6.861-92.006 6.861-55.706 0-98.202-11.725-137.728-38.093-141.517-94.362-167.629-431.565-167.885-434.944-0.973-13.466-12.186-23.757-25.498-23.757zM966.246 906.394c-88.474-10.803-288.461-59.955-478.822-182.323-97.741-62.822-205.722-154.010-289.894-282.266 45.978 28.774 96.768 42.189 159.181 42.189 33.126 0 65.894-3.635 97.638-7.168 30.925-3.43 60.16-6.707 88.883-6.707 44.083 0 78.95 8.192 109.67 25.702 61.952 35.43 112.691 77.619 156.774 130.867-63.949-1.434-173.414-6.502-239.872-24.218-10.291-2.765-21.197 1.178-27.392 9.83s-6.4 20.224-0.512 29.082c31.437 47.104 109.21 74.138 191.539 102.707 67.533 23.45 137.421 47.718 170.086 80.384 14.746 14.746 48.538 48.538 62.771 81.92z" />
<glyph unicode="&#xe915;" glyph-name="feather2" d="M25.6-64c-0.461 0-0.922 0-1.382 0.051-13.926 0.768-24.678 12.493-24.218 26.368 6.042 187.136 56.115 355.328 148.838 499.814 76.134 118.63 180.736 221.235 310.886 304.896 124.211 79.821 247.296 126.362 328.755 151.347 93.542 28.672 172.8 41.523 209.92 41.523 14.131 0 25.6-11.469 25.6-25.6s-11.469-25.6-25.6-25.6c-59.699 0-291.686-43.776-510.976-184.73-96.512-62.054-203.008-151.706-286.72-277.453 29.030 18.227 62.413 29.747 100.915 34.867 48.794 6.502 100.096 2.253 149.709-1.843 74.598-6.195 145.050-12.032 202.752 16.845 95.539 47.77 169.421 145.101 170.189 146.074 8.499 11.315 24.525 13.568 35.84 5.069s13.568-24.525 5.12-35.84c-3.277-4.403-81.664-107.827-188.211-161.126-70.502-35.277-151.501-28.57-229.837-22.067-94.976 7.885-184.678 15.309-249.907-49.92-122.47-122.47-145.971-416.051-146.176-419.021-1.024-13.414-12.186-23.654-25.498-23.654zM588.8 652.8c-9.882 0-19.302 5.786-23.501 15.411-5.632 12.954 0.307 28.058 13.312 33.69 100.915 43.776 329.523 104.499 368.589 104.499 14.131 0 25.6-11.469 25.6-25.6s-11.469-25.6-25.6-25.6c-27.034 0-245.402-55.706-348.211-100.301-3.328-1.434-6.758-2.099-10.189-2.099z" />
<glyph unicode="&#xe916;" glyph-name="feather3" d="M230.451 192c-0.87 0-1.741 0.051-2.662 0.154-13.978 1.434-24.166 13.875-22.886 27.853 12.237 129.024 54.374 245.043 125.389 344.781 58.266 81.869 135.629 152.678 230.042 210.432 163.328 99.942 334.029 133.581 386.867 133.581 14.131 0 25.6-11.469 25.6-25.6 0-48.333-44.902-93.235-64.102-112.435-31.283-31.283-87.654-50.842-142.182-69.786-1.587-0.563-3.174-1.126-4.762-1.638 34.918 1.741 64.973 1.997 79.718 1.997 3.328 0 5.171 0 5.171 0 9.523-0.102 18.176-5.427 22.528-13.875s3.686-18.586-1.792-26.419c-40.96-58.624-90.931-104.294-152.73-139.622-29.645-16.947-62.31-24.832-102.861-24.832-23.654 0-47.411 2.662-70.4 5.222-22.17 2.458-45.107 5.018-67.021 5.018-39.629 0-69.786-8.294-97.741-26.931-0.87-0.614-1.792-1.126-2.765-1.587-37.12-18.534-69.222-69.171-92.928-146.381-18.79-61.235-25.088-116.634-25.139-117.197-1.434-13.056-12.544-22.784-25.395-22.784zM911.616 854.118c-66.816-10.24-197.171-44.646-324.506-122.573-70.451-43.11-149.35-105.882-212.838-194.253 29.491 14.080 62.003 20.736 100.147 20.736 24.781 0 49.152-2.714 72.704-5.325 22.63-2.509 43.981-4.915 64.768-4.915 31.283 0 55.859 5.734 77.466 18.074 40.397 23.091 74.24 50.176 103.834 83.405-47.514-1.485-116.582-5.632-160-17.203-10.291-2.765-21.197 1.178-27.392 9.83s-6.4 20.224-0.512 29.082c24.422 36.608 82.739 56.883 144.538 78.336 49.050 17.050 99.789 34.662 122.778 57.651 8.090 8.090 27.238 27.238 39.066 47.155zM387.482 93.44c-0.307 0.307-29.082 32.819-29.082 72.96 0 18.432-9.882 35.891-27.853 49.203-11.366 8.397-27.392 5.99-35.789-5.376s-5.99-27.392 5.376-35.789c5.837-4.301 7.117-7.475 7.117-8.038 0-0.87-2.765-6.758-15.821-13.312-15.616-7.834-37.837-12.288-60.979-12.288s-45.312 4.506-60.979 12.288c-13.107 6.554-15.821 12.442-15.821 13.312 0 0.41 0.819 2.765 4.864 6.246 10.701 9.267 11.878 25.395 2.611 36.096s-25.395 11.878-36.096 2.611c-18.637-16.128-22.579-33.331-22.579-44.954 0-40.192-28.877-72.704-29.082-72.96-27.802-30.362-27.802-79.718 0-110.080 4.454-4.864 46.592-47.36 157.082-47.36s152.627 42.496 157.082 47.36c27.802 30.362 27.802 79.718 0 110.080zM349.747 17.971c-0.307-0.307-32.102-30.771-119.347-30.771-84.787 0-117.402 28.979-119.603 31.027-9.728 10.957-9.626 29.798 0.256 40.602 1.126 1.229 18.739 20.736 30.925 50.842 1.485-0.819 2.97-1.638 4.557-2.406 22.835-11.418 52.582-17.715 83.866-17.715s61.030 6.298 83.866 17.715c1.536 0.768 3.072 1.587 4.557 2.406 12.186-30.106 29.798-49.613 30.925-50.842 9.984-10.906 9.984-30.003 0-40.909z" />
<glyph unicode="&#xe917;" glyph-name="pen2" d="M814.080 335.36c-133.632 178.176-211.763 433.92-224.051 491.725 15.309 14.387 24.371 34.662 24.371 56.115 0 42.342-34.458 76.8-76.8 76.8-15.258 0-35.277-1.485-51.2-11.827-15.923 10.342-35.942 11.827-51.2 11.827-42.342 0-76.8-34.458-76.8-76.8 0-21.453 9.062-41.728 24.371-56.115-12.288-57.805-90.419-313.549-224.051-491.725-7.629-10.189-6.605-24.474 2.355-33.485 37.274-37.274 128.973-142.848 143.974-218.163-20.89-8.755-42.035-27.341-63.181-55.552-20.326-27.136-33.843-53.965-34.406-55.091-3.942-7.936-3.533-17.357 1.126-24.883s12.902-12.134 21.76-12.134h512c8.858 0 17.101 4.608 21.76 12.134s5.069 16.947 1.126 24.883c-0.563 1.126-14.080 27.955-34.406 55.091-21.146 28.211-42.291 46.797-63.181 55.552 15.053 75.264 106.752 180.89 143.974 218.163 9.011 9.011 10.035 23.245 2.406 33.485zM486.4 345.6c14.131 0 25.6-11.469 25.6-25.6s-11.469-25.6-25.6-25.6-25.6 11.469-25.6 25.6 11.469 25.6 25.6 25.6zM697.344-12.8h-421.837c18.79 27.085 41.574 51.2 57.344 51.2h307.2c15.77 0 38.554-24.115 57.344-51.2zM696.32 245.76c-45.158-60.211-71.782-112.589-79.565-156.16h-260.762c-7.731 43.571-34.406 95.949-79.565 156.16-24.525 32.717-48.896 60.16-63.949 76.442 74.957 105.165 129.997 228.966 163.635 316.467 17.459 45.466 33.434 92.467 44.954 132.454 16.794 58.214 15.002 66.97 13.926 72.192-1.536 7.526-6.144 13.978-12.646 17.766-7.885 4.557-12.8 13.056-12.8 22.17 0 14.131 11.469 25.6 25.6 25.6 19.456 0 23.706-3.891 23.757-3.942 1.843-2.714 1.843-14.131 1.843-21.658v-490.803c-29.798-10.547-51.2-39.014-51.2-72.397 0-42.342 34.458-76.8 76.8-76.8s76.8 34.458 76.8 76.8c0 33.382-21.402 61.85-51.2 72.397v490.803c0 7.526 0 18.944 1.843 21.658 0.051 0.051 4.301 3.942 23.757 3.942 14.131 0 25.6-11.469 25.6-25.6 0-9.114-4.915-17.613-12.8-22.17-6.502-3.738-11.11-10.24-12.646-17.766-1.075-5.222-2.867-13.978 13.926-72.192 11.52-39.936 27.494-86.989 44.954-132.454 33.638-87.45 88.678-211.251 163.635-316.467-15.104-16.282-39.424-43.674-63.949-76.442z" />
<glyph unicode="&#xe918;" glyph-name="pen-add" d="M660.48 335.36c-133.632 178.176-211.763 433.92-224.051 491.725 15.309 14.387 24.371 34.662 24.371 56.115 0 42.342-34.458 76.8-76.8 76.8-15.258 0-35.277-1.485-51.2-11.827-15.923 10.342-35.942 11.827-51.2 11.827-42.342 0-76.8-34.458-76.8-76.8 0-21.453 9.062-41.728 24.371-56.115-12.288-57.805-90.419-313.549-224.051-491.725-7.629-10.189-6.605-24.474 2.355-33.485 37.274-37.274 128.973-142.848 143.974-218.163-20.89-8.755-42.035-27.341-63.181-55.552-20.326-27.136-33.843-53.965-34.406-55.091-3.942-7.936-3.533-17.357 1.126-24.883s12.902-12.134 21.76-12.134h512c8.858 0 17.101 4.608 21.76 12.134s5.069 16.947 1.126 24.883c-0.563 1.126-14.080 27.955-34.406 55.091-21.146 28.211-42.291 46.797-63.181 55.552 15.053 75.264 106.752 180.89 143.974 218.163 9.011 9.011 10.035 23.245 2.406 33.485zM332.8 345.6c14.131 0 25.6-11.469 25.6-25.6s-11.469-25.6-25.6-25.6-25.6 11.469-25.6 25.6 11.469 25.6 25.6 25.6zM543.744-12.8h-421.837c18.79 27.085 41.574 51.2 57.344 51.2h307.2c15.77 0 38.554-24.115 57.344-51.2zM542.72 245.76c-45.158-60.211-71.782-112.589-79.565-156.16h-260.762c-7.731 43.571-34.406 95.949-79.565 156.16-24.525 32.717-48.896 60.16-63.949 76.442 74.957 105.165 129.997 228.966 163.635 316.467 17.459 45.466 33.434 92.467 44.954 132.454 16.794 58.214 15.002 66.97 13.926 72.192-1.536 7.526-6.144 13.978-12.646 17.766-7.885 4.557-12.8 13.056-12.8 22.17 0 14.131 11.469 25.6 25.6 25.6 19.456 0 23.706-3.891 23.757-3.942 1.843-2.714 1.843-14.131 1.843-21.658v-490.803c-29.798-10.547-51.2-39.014-51.2-72.397 0-42.342 34.458-76.8 76.8-76.8s76.8 34.458 76.8 76.8c0 33.382-21.402 61.85-51.2 72.397v490.803c0 7.526 0 18.944 1.843 21.658 0.051 0.051 4.301 3.942 23.757 3.942 14.131 0 25.6-11.469 25.6-25.6 0-9.114-4.915-17.613-12.8-22.17-6.502-3.738-11.11-10.24-12.646-17.766-1.075-5.222-2.867-13.978 13.926-72.192 11.52-39.936 27.494-86.989 44.954-132.454 33.638-87.45 88.678-211.251 163.635-316.467-15.104-16.282-39.424-43.674-64-76.442zM947.2 755.2h-128v128c0 14.131-11.469 25.6-25.6 25.6s-25.6-11.469-25.6-25.6v-128h-128c-14.131 0-25.6-11.469-25.6-25.6s11.469-25.6 25.6-25.6h128v-128c0-14.131 11.469-25.6 25.6-25.6s25.6 11.469 25.6 25.6v128h128c14.131 0 25.6 11.469 25.6 25.6s-11.469 25.6-25.6 25.6z" />
<glyph unicode="&#xe919;" glyph-name="pen-remove" d="M660.48 335.36c-133.632 178.176-211.763 433.92-224.051 491.725 15.309 14.387 24.371 34.662 24.371 56.115 0 42.342-34.458 76.8-76.8 76.8-15.258 0-35.277-1.485-51.2-11.827-15.923 10.342-35.942 11.827-51.2 11.827-42.342 0-76.8-34.458-76.8-76.8 0-21.453 9.062-41.728 24.371-56.115-12.288-57.805-90.419-313.549-224.051-491.725-7.629-10.189-6.605-24.474 2.355-33.485 37.274-37.274 128.973-142.848 143.974-218.163-20.89-8.755-42.035-27.341-63.181-55.552-20.326-27.136-33.843-53.965-34.406-55.091-3.942-7.936-3.533-17.357 1.126-24.883s12.902-12.134 21.76-12.134h512c8.858 0 17.101 4.608 21.76 12.134s5.069 16.947 1.126 24.883c-0.563 1.126-14.080 27.955-34.406 55.091-21.146 28.211-42.291 46.797-63.181 55.552 15.053 75.264 106.752 180.89 143.974 218.163 9.011 9.011 10.035 23.245 2.406 33.485zM332.8 345.6c14.131 0 25.6-11.469 25.6-25.6s-11.469-25.6-25.6-25.6-25.6 11.469-25.6 25.6 11.469 25.6 25.6 25.6zM543.744-12.8h-421.837c18.79 27.085 41.574 51.2 57.344 51.2h307.2c15.77 0 38.554-24.115 57.344-51.2zM542.72 245.76c-45.158-60.211-71.782-112.589-79.565-156.16h-260.762c-7.731 43.571-34.406 95.949-79.565 156.16-24.525 32.717-48.896 60.16-63.949 76.442 74.957 105.165 129.997 228.966 163.635 316.467 17.459 45.466 33.434 92.467 44.954 132.454 16.794 58.214 15.002 66.97 13.926 72.192-1.536 7.526-6.144 13.978-12.646 17.766-7.885 4.557-12.8 13.056-12.8 22.17 0 14.131 11.469 25.6 25.6 25.6 19.456 0 23.706-3.891 23.757-3.942 1.843-2.714 1.843-14.131 1.843-21.658v-490.803c-29.798-10.547-51.2-39.014-51.2-72.397 0-42.342 34.458-76.8 76.8-76.8s76.8 34.458 76.8 76.8c0 33.382-21.402 61.85-51.2 72.397v490.803c0 7.526 0 18.944 1.843 21.658 0.051 0.051 4.301 3.942 23.757 3.942 14.131 0 25.6-11.469 25.6-25.6 0-9.114-4.915-17.613-12.8-22.17-6.502-3.738-11.11-10.24-12.646-17.766-1.075-5.222-2.867-13.978 13.926-72.192 11.52-39.936 27.494-86.989 44.954-132.454 33.638-87.45 88.678-211.251 163.635-316.467-15.104-16.282-39.424-43.674-64-76.442zM947.2 704h-307.2c-14.131 0-25.6 11.469-25.6 25.6s11.469 25.6 25.6 25.6h307.2c14.131 0 25.6-11.469 25.6-25.6s-11.469-25.6-25.6-25.6z" />
<glyph unicode="&#xe91a;" glyph-name="vector" d="M947.2 447.488c-11.674 0-22.784-2.662-32.717-7.373l-146.483 146.483v91.802c0 14.131-11.469 25.6-25.6 25.6h-91.802l-146.125 146.125c4.813 10.035 7.526 21.248 7.526 33.075 0 42.342-34.458 76.8-76.8 76.8s-76.8-34.458-76.8-76.8 34.458-76.8 76.8-76.8c11.827 0 23.040 2.714 33.075 7.526l69.376-69.376c-59.443 14.541-124.058 13.568-193.178-2.97-81.613-19.558-154.419-57.498-206.899-90.624-2.97 1.178-6.195 1.843-9.574 1.843h-102.4c-14.131 0-25.6-11.469-25.6-25.6v-102.4c0-14.131 11.469-25.6 25.6-25.6h102.4c14.131 0 25.6 11.469 25.6 25.6v75.622c106.957 70.093 297.37 160.307 460.8 56.166v-80.589c0-14.131 11.469-25.6 25.6-25.6h80.538c107.11-168.602 2.97-370.176-56.166-460.8h-75.571c-14.131 0-25.6-11.469-25.6-25.6v-102.4c0-14.131 11.469-25.6 25.6-25.6h102.4c14.131 0 25.6 11.469 25.6 25.6v102.4c0 3.379-0.666 6.605-1.843 9.574 33.075 52.48 71.014 125.286 90.624 206.899 16.589 69.171 17.562 133.734 2.97 193.178l69.632-69.683c-4.813-10.035-7.526-21.248-7.526-33.075 0-42.189 34.355-76.544 76.544-76.544s76.544 34.355 76.544 76.544-34.355 76.544-76.544 76.544zM102.4 550.4h-51.2v51.2h51.2v-51.2zM665.6-12.8h-51.2v51.2h51.2v-51.2zM409.6 883.2c0 14.131 11.469 25.6 25.6 25.6s25.6-11.469 25.6-25.6-11.469-25.6-25.6-25.6-25.6 11.469-25.6 25.6zM665.6 652.8h51.2v-51.2h-51.2v51.2zM947.2 345.6c-13.978 0-25.344 11.366-25.344 25.344s11.366 25.344 25.344 25.344 25.344-11.366 25.344-25.344-11.366-25.344-25.344-25.344z" />
<glyph unicode="&#xe91b;" glyph-name="pen3" d="M990.925 645.325l-307.2 307.2c-8.448 8.448-21.555 9.933-31.693 3.584l-409.6-256c-7.475-4.659-12.032-12.8-12.032-21.606 0-0.512-0.666-51.763-28.979-160.768-26.163-100.608-81.869-272.435-198.963-519.526-4.608-9.779-2.611-21.402 5.018-29.082 4.915-4.915 11.469-7.475 18.125-7.475 3.686 0 7.475 0.819 10.957 2.458 247.091 117.043 418.918 172.8 519.526 198.963 109.056 28.314 160.256 28.979 160.717 28.979 8.806 0 17.050 4.557 21.709 12.032l256 409.6c6.298 10.086 4.813 23.245-3.584 31.693zM702.157 242.483c-49.306-3.738-223.334-27.187-558.438-173.363l343.757 343.757c16.589-10.189 36.096-16.077 56.934-16.077 60.211 0 109.21 48.998 109.21 109.21s-48.998 109.21-109.21 109.21c-60.211 0-109.21-48.998-109.21-109.21 0-20.838 5.888-40.346 16.077-56.934l-343.757-343.757c146.227 335.155 169.626 509.184 173.363 558.438l380.979 238.131 278.374-278.426-238.131-380.979zM486.4 506.010c0 32 26.010 58.010 58.010 58.010s58.010-26.010 58.010-58.010-26.010-58.010-58.010-58.010-58.010 26.010-58.010 58.010z" />
<glyph unicode="&#xe91c;" glyph-name="blog" d="M530.125 338.125l-128 128c-6.656 6.656-16.435 9.114-25.446 6.4l-256-76.8c-8.653-2.611-15.309-9.574-17.459-18.33l-102.4-409.6c-2.202-8.704 0.358-17.971 6.758-24.32 4.864-4.864 11.418-7.475 18.125-7.475 2.048 0 4.147 0.256 6.195 0.768l409.6 102.4c8.755 2.202 15.718 8.806 18.33 17.459l76.8 256c2.714 9.011 0.256 18.79-6.4 25.446zM414.874 85.299l-305.818-76.442 139.469 139.469c10.035-4.813 21.248-7.526 33.075-7.526 42.342 0 76.8 34.458 76.8 76.8s-34.458 76.8-76.8 76.8-76.8-34.458-76.8-76.8c0-11.827 2.714-23.040 7.526-33.075l-139.469-139.469 76.442 305.818 227.43 68.198 106.394-106.394-68.198-227.43zM256 217.6c0 14.131 11.469 25.6 25.6 25.6s25.6-11.469 25.6-25.6-11.469-25.6-25.6-25.6-25.6 11.469-25.6 25.6zM691.2 345.6c-14.131 0-25.6 11.469-25.6 25.6 0 127.027-103.373 230.4-230.4 230.4-14.131 0-25.6 11.469-25.6 25.6s11.469 25.6 25.6 25.6c155.29 0 281.6-126.31 281.6-281.6 0-14.131-11.469-25.6-25.6-25.6zM844.8 345.6c-14.131 0-25.6 11.469-25.6 25.6 0 211.763-172.237 384-384 384-14.131 0-25.6 11.469-25.6 25.6s11.469 25.6 25.6 25.6c116.224 0 225.536-45.261 307.712-127.488s127.488-191.488 127.488-307.712c0-14.131-11.469-25.6-25.6-25.6zM998.4 345.6c-14.131 0-25.6 11.469-25.6 25.6 0 296.448-241.152 537.6-537.6 537.6-14.131 0-25.6 11.469-25.6 25.6s11.469 25.6 25.6 25.6c79.462 0 156.57-15.565 229.171-46.285 70.093-29.645 133.069-72.090 187.136-126.157s96.512-117.043 126.157-187.136c30.72-72.602 46.285-149.709 46.285-229.171 0-14.131-11.469-25.6-25.6-25.6z" />
<glyph unicode="&#xe91d;" glyph-name="brush" d="M25.6-64c-12.288 0-22.835 8.704-25.139 20.736s4.25 24.064 15.616 28.621c42.035 16.794 61.85 73.421 82.842 133.376 14.182 40.448 28.826 82.33 51.968 114.893 28.365 39.936 66.355 60.211 112.845 60.211 15.411 0 32.102-2.202 49.613-6.605 31.078-7.782 57.856-27.341 75.366-55.040 17.152-27.085 24.32-60.365 20.224-93.645-12.032-97.894-119.091-202.547-383.437-202.547zM263.782 242.637c-62.669 0-85.811-53.197-116.531-140.851-13.824-39.475-27.955-79.77-49.766-111.616 75.827 6.656 138.598 24.218 183.962 51.763 44.646 27.085 71.885 63.59 76.698 102.81 5.427 44.134-18.637 83.149-57.19 92.774-13.466 3.379-26.010 5.069-37.222 5.069zM488.653 295.578c0 0 0 0 0 0-43.418 0-81.715 18.586-105.062 50.944-25.805 35.789-30.976 85.043-14.285 135.168 14.182 42.445 45.978 81.408 100.096 122.573 46.285 35.174 105.37 69.325 167.885 105.421 111.155 64.205 237.158 136.96 342.989 242.842 9.984 9.984 26.214 9.984 36.198 0 5.018-5.018 7.475-11.571 7.475-18.125s-2.509-13.107-7.475-18.125c-105.83-105.83-178.637-231.834-242.842-342.989-36.096-62.515-70.246-121.6-105.421-167.885-41.165-54.118-80.077-85.914-122.573-100.096-19.354-6.451-38.554-9.728-57.037-9.728zM832.102 768.102c-57.395-38.195-114.995-71.475-169.165-102.758-118.579-68.454-220.928-127.59-245.043-199.834-11.622-34.816-9.011-66.458 7.27-89.037 13.773-19.149 36.352-29.696 63.539-29.696 0 0 0 0 0 0 12.954 0 26.675 2.406 40.806 7.117 72.243 24.064 131.379 126.464 199.834 245.043 31.283 54.17 64.563 111.77 102.758 169.165z" />
<glyph unicode="&#xe91e;" glyph-name="brush2" d="M179.2 89.6c-6.758 0-13.363 2.714-18.074 7.526s-7.526 11.366-7.526 18.074 2.714 13.312 7.526 18.074c4.762 4.762 11.366 7.526 18.074 7.526s13.312-2.714 18.074-7.526c4.762-4.762 7.526-11.366 7.526-18.074s-2.714-13.363-7.526-18.074c-4.762-4.762-11.366-7.526-18.074-7.526zM954.675 476.723l-414.003 414.003c-14.49 14.49-33.741 22.426-54.323 22.426s-39.834-7.987-54.323-22.426l-260.403-260.403c-27.597-27.597-35.584-76.595-18.125-111.565l82.227-164.403c2.509-5.069 2.97-9.882 1.229-13.568s-5.683-6.502-11.213-7.782c-4.403-1.075-109.005-26.675-173.363-91.034-33.843-33.843-52.48-78.848-52.48-126.72s18.637-92.877 52.48-126.72c33.843-33.843 78.848-52.48 126.72-52.48 0 0 0 0 0 0 47.872 0 92.877 18.637 126.72 52.48 64.358 64.358 90.010 168.96 91.034 173.363 1.075 4.557 4.198 12.237 12.749 12.237 2.714 0 5.632-0.768 8.653-2.304l164.403-82.227c12.186-6.093 26.47-9.318 41.37-9.318 26.778 0 52.992 10.24 70.144 27.392l260.403 260.403c29.952 29.952 29.952 78.643 0 108.595zM658.125 143.923c-7.526-7.526-20.89-12.39-33.946-12.39-7.014 0-13.414 1.331-18.483 3.891l-164.403 82.227c-10.189 5.12-20.838 7.68-31.539 7.68-30.003 0-55.142-20.685-62.515-51.507-0.205-0.922-23.45-95.13-77.466-149.094-24.166-24.166-56.32-37.478-90.522-37.478s-66.355 13.312-90.522 37.478c-24.166 24.166-37.478 56.32-37.478 90.522s13.312 66.355 37.478 90.522c54.016 54.016 148.173 77.261 149.094 77.466 20.685 4.966 37.325 18.074 45.67 35.942s7.68 39.066-1.843 58.112l-82.227 164.403c-7.68 15.309-3.584 40.346 8.499 52.429l48.077 48.077 450.202-450.202-48.077-48.077zM918.477 404.275l-176.077-176.077-450.202 450.202 176.077 176.077c4.813 4.813 11.213 7.424 18.125 7.424s13.312-2.662 18.125-7.424l414.003-414.003c9.984-9.984 9.984-26.214 0-36.198z" />
<glyph unicode="&#xe91f;" glyph-name="spray" d="M560.64 546.867c-6.451 27.546-24.986 52.429-53.811 71.629-26.931 17.971-60.774 29.389-97.229 33.024v52.48h25.6c14.131 0 25.6 11.469 25.6 25.6v102.4c0 14.131-11.469 25.6-25.6 25.6h-102.4c-14.131 0-25.6-11.469-25.6-25.6v-102.4c0-14.131 11.469-25.6 25.6-25.6h25.6v-52.48c-36.403-3.635-70.246-15.053-97.229-33.024-28.826-19.2-47.36-44.134-53.811-71.629-31.13-9.83-53.76-38.963-53.76-73.267v-460.8c0-42.342 34.458-76.8 76.8-76.8h307.2c42.342 0 76.8 34.458 76.8 76.8v460.8c0 34.304-22.63 63.437-53.76 73.267zM358.4 806.4h51.2v-51.2h-51.2v51.2zM384 601.6c54.528 0 102.349-21.709 120.371-51.2h-240.742c18.022 29.491 65.843 51.2 120.371 51.2zM537.6-12.8h-307.2c-14.131 0-25.6 11.469-25.6 25.6v460.8c0 14.131 11.469 25.6 25.6 25.6h307.2c14.131 0 25.6-11.469 25.6-25.6v-76.8h-128c-14.131 0-25.6-11.469-25.6-25.6v-256c0-14.131 11.469-25.6 25.6-25.6h128v-76.8c0-14.131-11.469-25.6-25.6-25.6zM563.2 345.6v-204.8h-102.4v204.8h102.4zM537.6 755.2c-6.758 0-13.363 2.714-18.074 7.526s-7.526 11.366-7.526 18.074 2.714 13.363 7.526 18.074c4.762 4.762 11.366 7.526 18.074 7.526s13.363-2.714 18.074-7.526c4.762-4.762 7.526-11.366 7.526-18.074s-2.714-13.312-7.526-18.074c-4.762-4.762-11.366-7.526-18.074-7.526zM640 806.4c-6.758 0-13.363 2.714-18.074 7.526s-7.526 11.366-7.526 18.074 2.714 13.312 7.526 18.074c4.762 4.762 11.366 7.526 18.074 7.526s13.312-2.714 18.074-7.526c4.762-4.762 7.526-11.366 7.526-18.074s-2.714-13.363-7.526-18.074c-4.762-4.762-11.366-7.526-18.074-7.526zM742.4 857.6c-6.758 0-13.363 2.714-18.074 7.526s-7.526 11.366-7.526 18.074 2.714 13.363 7.526 18.074c4.762 4.762 11.366 7.526 18.074 7.526s13.312-2.714 18.074-7.526c4.762-4.762 7.526-11.366 7.526-18.074s-2.714-13.363-7.526-18.074c-4.762-4.762-11.366-7.526-18.074-7.526zM742.4 755.2c-6.758 0-13.363 2.714-18.074 7.526s-7.526 11.366-7.526 18.074 2.714 13.363 7.526 18.074c4.762 4.762 11.366 7.526 18.074 7.526s13.312-2.714 18.074-7.526c4.762-4.762 7.526-11.366 7.526-18.074s-2.714-13.363-7.526-18.074c-4.762-4.762-11.366-7.526-18.074-7.526zM640 704c-6.758 0-13.363 2.714-18.074 7.526s-7.526 11.366-7.526 18.074 2.714 13.312 7.526 18.074c4.762 4.762 11.366 7.526 18.074 7.526s13.312-2.714 18.074-7.526c4.762-4.762 7.526-11.366 7.526-18.074s-2.714-13.363-7.526-18.074c-4.762-4.762-11.366-7.526-18.074-7.526zM742.4 652.8c-6.758 0-13.363 2.714-18.074 7.526s-7.526 11.366-7.526 18.074 2.714 13.363 7.526 18.074c4.762 4.762 11.366 7.526 18.074 7.526s13.312-2.714 18.074-7.526c4.762-4.762 7.526-11.366 7.526-18.074s-2.714-13.363-7.526-18.074c-4.762-4.762-11.366-7.526-18.074-7.526zM844.8 806.4c-6.758 0-13.312 2.714-18.074 7.526s-7.526 11.366-7.526 18.074 2.714 13.312 7.526 18.074c4.762 4.762 11.366 7.526 18.074 7.526s13.363-2.714 18.074-7.526c4.762-4.762 7.526-11.366 7.526-18.074s-2.714-13.363-7.526-18.074c-4.762-4.762-11.366-7.526-18.074-7.526zM844.8 908.8c-6.758 0-13.363 2.714-18.074 7.526s-7.526 11.366-7.526 18.074 2.714 13.363 7.526 18.074c4.762 4.762 11.366 7.526 18.074 7.526s13.363-2.714 18.074-7.526c4.762-4.762 7.526-11.366 7.526-18.074s-2.714-13.363-7.526-18.074c-4.762-4.762-11.366-7.526-18.074-7.526zM844.8 704c-6.758 0-13.363 2.714-18.074 7.526s-7.526 11.366-7.526 18.074 2.714 13.312 7.526 18.074c4.762 4.762 11.366 7.526 18.074 7.526s13.363-2.714 18.074-7.526c4.762-4.762 7.526-11.366 7.526-18.074s-2.714-13.363-7.526-18.074c-4.762-4.762-11.366-7.526-18.074-7.526zM844.8 601.6c-6.758 0-13.363 2.714-18.074 7.526s-7.526 11.366-7.526 18.074 2.714 13.363 7.526 18.074c4.762 4.762 11.366 7.526 18.074 7.526s13.363-2.714 18.074-7.526c4.762-4.762 7.526-11.366 7.526-18.074s-2.714-13.363-7.526-18.074c-4.762-4.762-11.366-7.526-18.074-7.526z" />
<glyph unicode="&#xe920;" glyph-name="paint-roller" d="M896 755.2h-25.6v25.6c0 42.342-34.458 76.8-76.8 76.8h-716.8c-42.342 0-76.8-34.458-76.8-76.8v-102.4c0-42.342 34.458-76.8 76.8-76.8h716.8c42.342 0 76.8 34.458 76.8 76.8v25.6h25.6c14.131 0 25.6-11.469 25.6-25.6v-102.4c0-14.131-11.469-25.6-25.6-25.6h-409.6c-42.342 0-76.8-34.458-76.8-76.8v-81.203c-29.798-10.547-51.2-39.014-51.2-72.397v-256c0-42.342 34.458-76.8 76.8-76.8s76.8 34.458 76.8 76.8v256c0 33.382-21.402 61.85-51.2 72.397v81.203c0 14.131 11.469 25.6 25.6 25.6h409.6c42.342 0 76.8 34.458 76.8 76.8v102.4c0 42.342-34.458 76.8-76.8 76.8zM819.2 678.4c0-14.131-11.469-25.6-25.6-25.6h-716.8c-14.131 0-25.6 11.469-25.6 25.6v102.4c0 14.131 11.469 25.6 25.6 25.6h716.8c14.131 0 25.6-11.469 25.6-25.6v-102.4zM460.8 64c0-14.131-11.469-25.6-25.6-25.6s-25.6 11.469-25.6 25.6v256c0 14.131 11.469 25.6 25.6 25.6s25.6-11.469 25.6-25.6v-256z" />
<glyph unicode="&#xe921;" glyph-name="stamp" d="M896-64h-819.2c-14.131 0-25.6 11.469-25.6 25.6s11.469 25.6 25.6 25.6h819.2c14.131 0 25.6-11.469 25.6-25.6s-11.469-25.6-25.6-25.6zM896 243.2h-230.4c-27.75 0-51.2 35.174-51.2 76.8v257.894c61.184 35.482 102.4 101.683 102.4 177.306 0 112.947-91.853 204.8-204.8 204.8s-204.8-91.853-204.8-204.8c0-75.674 41.216-141.824 102.4-177.306v-257.894c0-41.626-23.45-76.8-51.2-76.8h-281.6c-42.342 0-76.8-34.458-76.8-76.8v-51.2c0-42.342 34.458-76.8 76.8-76.8h819.2c42.342 0 76.8 34.458 76.8 76.8v51.2c0 42.342-34.458 76.8-76.8 76.8zM358.4 755.2c0 84.685 68.915 153.6 153.6 153.6s153.6-68.915 153.6-153.6-68.915-153.6-153.6-153.6-153.6 68.915-153.6 153.6zM460.8 320v236.902c16.384-4.25 33.536-6.502 51.2-6.502s34.816 2.253 51.2 6.502v-236.902c0-28.774 7.629-55.398 20.531-76.8h-143.462c12.902 21.402 20.531 48.026 20.531 76.8zM921.6 115.2c0-14.131-11.469-25.6-25.6-25.6h-819.2c-14.131 0-25.6 11.469-25.6 25.6v51.2c0 14.131 11.469 25.6 25.6 25.6h819.2c14.131 0 25.6-11.469 25.6-25.6v-51.2zM435.2 755.2c-2.816 0-5.734 0.461-8.55 1.485-13.312 4.71-20.326 19.354-15.616 32.666 10.291 29.082 37.734 56.525 66.816 66.816 13.312 4.71 27.955-2.253 32.666-15.616s-2.253-27.955-15.616-32.666c-14.49-5.12-30.464-21.094-35.584-35.584-3.738-10.496-13.568-17.101-24.115-17.101z" />
<glyph unicode="&#xe922;" glyph-name="tape" d="M409.6 601.6c-51.251 0-99.84 8.704-136.806 24.576-59.187 25.344-67.994 59.648-67.994 77.824s8.858 52.48 67.994 77.824c36.966 15.821 85.555 24.576 136.806 24.576s99.84-8.704 136.806-24.576c59.187-25.344 67.994-59.648 67.994-77.824s-8.858-52.48-67.994-77.824c-36.966-15.821-85.555-24.576-136.806-24.576zM409.6 755.2c-95.283 0-153.6-33.126-153.6-51.2s58.317-51.2 153.6-51.2 153.6 33.126 153.6 51.2-58.317 51.2-153.6 51.2zM1016.781 537.446c-3.43 3.584-81.408 83.2-201.37 131.123 2.509 11.622 3.789 23.398 3.789 35.379 0 70.912-44.339 136.55-124.877 184.883-76.442 45.875-177.562 71.117-284.723 71.117s-208.23-25.242-284.723-71.117c-80.538-48.333-124.877-113.971-124.877-184.883s44.339-136.55 124.877-184.883c9.216-5.53 18.79-10.752 28.723-15.667v-110.95c-43.366-21.555-79.718-48.742-105.677-79.258-31.334-36.813-47.923-78.746-47.923-121.242 0-70.912 44.339-136.55 124.877-184.883 76.442-45.875 177.562-71.117 284.723-71.117 97.075 0 191.027 21.248 264.602 59.853 61.389 32.205 105.728 74.906 128.205 122.726 18.278-13.926 37.171-29.747 56.678-47.411 68.198-61.901 118.835-124.877 119.347-125.491 4.966-6.195 12.39-9.626 20.019-9.626 2.816 0 5.683 0.461 8.448 1.434 10.24 3.584 17.101 13.261 17.101 24.166v558.080c0 6.656-2.56 13.005-7.219 17.818zM51.2 704c0 52.173 35.533 102.246 100.045 140.954 68.608 41.165 160.358 63.846 258.355 63.846s189.747-22.682 258.355-63.846c64.512-38.707 100.045-88.781 100.045-140.954 0-14.336-2.714-28.518-7.936-42.291-0.051-0.102-0.051-0.154-0.102-0.256s-0.051-0.102-0.051-0.154c-13.875-36.352-45.363-70.246-91.955-98.253-11.878-7.117-24.474-13.67-37.632-19.661-0.461-0.205-0.922-0.41-1.382-0.614-62.669-28.262-138.906-43.52-219.392-43.52-80.384 0-156.518 15.258-219.187 43.469-0.512 0.256-1.075 0.512-1.638 0.768-13.158 5.99-25.702 12.544-37.581 19.661-64.512 38.707-100.045 88.781-100.045 140.954zM409.6 448c73.062 0 143.258 11.725 204.8 33.741v-264.141c0-15.923-20.019-34.662-52.275-48.998-40.294-17.92-94.464-27.802-152.525-27.802s-112.23 9.882-152.525 27.802c-32.256 14.336-52.275 33.126-52.275 48.998v264.141c61.542-22.016 131.738-33.741 204.8-33.741zM650.394 41.165c-66.355-34.816-151.859-53.965-240.794-53.965-97.997 0-189.747 22.682-258.355 63.846-64.512 38.707-100.045 88.781-100.045 140.954 0 52.582 37.632 104.038 102.4 142.336v-116.736c0-38.093 29.389-72.090 82.688-95.795 46.694-20.787 108.288-32.205 173.312-32.205s126.618 11.418 173.312 32.205c40.192 17.869 66.765 41.574 77.414 68.506 29.082-4.608 62.464-18.739 99.226-41.882-15.923-40.704-54.016-78.285-109.158-107.264zM972.8 30.003c-20.941 22.733-47.974 50.534-78.797 78.541-86.63 78.797-163.328 123.29-228.403 132.71v262.195c9.882 4.915 19.507 10.138 28.723 15.667 47.667 28.57 82.637 63.232 103.27 101.478 89.293-36.045 154.317-92.262 175.258-111.77v-478.822z" />
<glyph unicode="&#xe923;" glyph-name="desk-tape" d="M955.341 549.018v0.051l-577.69 193.638c-3.533 1.28-7.117 2.509-10.752 3.584l-0.358 0.102c-18.79 5.683-38.707 8.755-59.341 8.755-95.59 0-177.203-65.741-199.066-156.467-26.368 1.843-53.862 2.867-82.534 2.867-14.131 0-25.6-11.469-25.6-25.6 0-55.859 13.517-159.744 39.373-250.214 35.072-122.726 82.125-184.986 139.827-184.986h570.829c71.219 0 126.31 84.531 160.051 155.494 36.915 77.722 62.72 171.674 62.72 228.557 0 11.162-7.168 20.787-17.459 24.218zM307.2 704c15.411 0 30.259-2.304 44.288-6.502l8.96-3.021c58.522-21.709 100.352-78.080 100.352-144.077 0-12.902-1.587-25.6-4.71-37.837-15.36 6.707-31.386 13.363-48.077 19.814 1.024 5.888 1.587 11.93 1.587 18.022 0 56.474-45.926 102.4-102.4 102.4-25.805 0-50.432-9.626-69.376-27.085-11.878-10.957-20.89-24.371-26.419-39.168-16.64 2.816-33.792 5.274-51.507 7.373 18.842 64.256 78.182 110.080 147.354 110.080zM263.168 576.41c9.011 15.104 25.549 25.19 44.032 25.19 28.211 0 51.2-22.989 51.2-51.2 0-0.102 0-0.205 0-0.256-29.594 9.728-61.235 18.688-95.232 26.266zM863.846 318.259c-37.018-77.875-80.589-126.259-113.766-126.259h-0.256c-0.051 0-0.102 0-0.205 0h-570.419c-17.971 0-34.714 20.48-45.568 37.683-16.435 26.010-31.59 63.078-45.005 110.182-20.685 72.346-33.229 155.648-36.557 210.278 25.088-0.563 49.152-1.894 72.192-3.891 0.666-0.102 1.331-0.256 1.997-0.358 1.075-0.102 2.202-0.154 3.277-0.154 33.229-3.072 64.461-7.578 93.85-13.158 1.587-0.461 3.226-0.768 4.966-0.922 50.586-9.882 95.846-23.040 137.011-37.786 1.485-0.717 3.021-1.229 4.557-1.638 32.256-11.725 62.054-24.474 89.958-37.427 0.256-0.154 0.512-0.307 0.819-0.41 0.154-0.051 0.307-0.102 0.461-0.154 28.672-13.312 55.347-26.829 80.691-39.629 73.062-37.018 136.141-68.966 200.602-68.966 59.392 0 112.742 20.992 156.058 61.133-9.472-29.798-21.299-60.467-34.662-88.474zM881.664 463.104c-37.222-44.032-84.070-66.304-139.264-66.304-52.224 0-107.52 28.006-177.459 63.437-19.302 9.779-39.834 20.173-61.696 30.669 5.837 19.2 8.806 39.117 8.806 59.494 0 37.325-10.035 72.346-27.546 102.502l428.032-143.462c-6.707-12.954-16.742-29.747-30.771-46.336z" />
<glyph unicode="&#xe924;" glyph-name="texture" d="M25.6 857.6c-6.758 0-13.312 2.714-18.074 7.526s-7.526 11.366-7.526 18.074 2.714 13.363 7.526 18.074c4.762 4.762 11.366 7.526 18.074 7.526s13.363-2.714 18.074-7.526c4.762-4.762 7.526-11.366 7.526-18.074s-2.714-13.312-7.526-18.074-11.366-7.526-18.074-7.526zM128 857.6c-6.758 0-13.312 2.714-18.074 7.526s-7.526 11.366-7.526 18.074 2.714 13.363 7.526 18.074c4.762 4.762 11.366 7.526 18.074 7.526s13.363-2.714 18.074-7.526c4.762-4.762 7.526-11.366 7.526-18.074s-2.714-13.312-7.526-18.074-11.366-7.526-18.074-7.526zM230.4 857.6c-6.758 0-13.363 2.714-18.074 7.526s-7.526 11.366-7.526 18.074 2.714 13.312 7.526 18.074 11.366 7.526 18.074 7.526 13.363-2.714 18.074-7.526c4.762-4.762 7.526-11.366 7.526-18.074s-2.714-13.363-7.526-18.074c-4.762-4.762-11.366-7.526-18.074-7.526zM332.8 857.6c-6.758 0-13.312 2.714-18.074 7.526s-7.526 11.366-7.526 18.074 2.714 13.312 7.526 18.074 11.366 7.526 18.074 7.526 13.312-2.714 18.074-7.526 7.526-11.366 7.526-18.074-2.714-13.312-7.526-18.074-11.366-7.526-18.074-7.526zM435.2 857.6c-6.758 0-13.312 2.714-18.074 7.526s-7.526 11.366-7.526 18.074 2.714 13.363 7.526 18.074c4.762 4.762 11.366 7.526 18.074 7.526s13.312-2.714 18.074-7.526c4.762-4.762 7.526-11.366 7.526-18.074s-2.714-13.363-7.526-18.074c-4.762-4.762-11.366-7.526-18.074-7.526zM947.2 857.6h-409.6c-14.131 0-25.6 11.469-25.6 25.6s11.469 25.6 25.6 25.6h409.6c14.131 0 25.6-11.469 25.6-25.6s-11.469-25.6-25.6-25.6zM25.6 755.2c-6.758 0-13.312 2.714-18.074 7.526s-7.526 11.366-7.526 18.074 2.714 13.363 7.526 18.074c4.762 4.762 11.366 7.526 18.074 7.526s13.363-2.714 18.074-7.526c4.762-4.762 7.526-11.366 7.526-18.074s-2.714-13.363-7.526-18.074c-4.762-4.762-11.366-7.526-18.074-7.526zM128 755.2c-6.758 0-13.363 2.714-18.074 7.526s-7.526 11.366-7.526 18.074 2.714 13.363 7.526 18.074c4.762 4.762 11.366 7.526 18.074 7.526s13.363-2.714 18.074-7.526c4.762-4.762 7.526-11.366 7.526-18.074s-2.714-13.312-7.526-18.074c-4.762-4.762-11.366-7.526-18.074-7.526zM230.4 755.2c-6.758 0-13.312 2.714-18.074 7.526s-7.526 11.366-7.526 18.074 2.714 13.363 7.526 18.074c4.762 4.762 11.366 7.526 18.074 7.526s13.363-2.714 18.074-7.526c4.762-4.762 7.526-11.366 7.526-18.074s-2.714-13.363-7.526-18.074c-4.762-4.762-11.366-7.526-18.074-7.526zM332.8 755.2c-6.758 0-13.363 2.714-18.074 7.526s-7.526 11.366-7.526 18.074 2.714 13.363 7.526 18.074c4.762 4.762 11.366 7.526 18.074 7.526s13.363-2.714 18.074-7.526c4.762-4.762 7.526-11.366 7.526-18.074s-2.714-13.312-7.526-18.074c-4.762-4.762-11.366-7.526-18.074-7.526zM435.2 755.2c-6.758 0-13.312 2.714-18.074 7.526s-7.526 11.366-7.526 18.074 2.714 13.312 7.526 18.074c4.762 4.762 11.366 7.526 18.074 7.526s13.312-2.714 18.074-7.526c4.762-4.762 7.526-11.366 7.526-18.074s-2.714-13.363-7.526-18.074c-4.762-4.762-11.366-7.526-18.074-7.526zM947.2 755.2h-409.6c-14.131 0-25.6 11.469-25.6 25.6s11.469 25.6 25.6 25.6h409.6c14.131 0 25.6-11.469 25.6-25.6s-11.469-25.6-25.6-25.6zM25.6 652.8c-6.758 0-13.363 2.714-18.074 7.526s-7.526 11.366-7.526 18.074 2.714 13.363 7.526 18.074c4.762 4.762 11.366 7.526 18.074 7.526s13.312-2.714 18.074-7.526 7.526-11.366 7.526-18.074-2.714-13.363-7.526-18.074c-4.762-4.762-11.366-7.526-18.074-7.526zM128 652.8c-6.758 0-13.312 2.714-18.074 7.526s-7.526 11.366-7.526 18.074 2.714 13.312 7.526 18.074 11.366 7.526 18.074 7.526 13.363-2.714 18.074-7.526c4.762-4.762 7.526-11.366 7.526-18.074s-2.714-13.363-7.526-18.074c-4.762-4.762-11.366-7.526-18.074-7.526zM230.4 652.8c-6.758 0-13.312 2.714-18.074 7.526s-7.526 11.366-7.526 18.074 2.714 13.363 7.526 18.074c4.762 4.762 11.366 7.526 18.074 7.526s13.312-2.714 18.074-7.526c4.762-4.762 7.526-11.366 7.526-18.074s-2.714-13.363-7.526-18.074c-4.762-4.762-11.366-7.526-18.074-7.526zM332.8 652.8c-6.758 0-13.363 2.714-18.074 7.526s-7.526 11.366-7.526 18.074 2.714 13.363 7.526 18.074c4.762 4.762 11.366 7.526 18.074 7.526s13.363-2.714 18.074-7.526c4.762-4.762 7.526-11.366 7.526-18.074s-2.714-13.312-7.526-18.074c-4.762-4.762-11.366-7.526-18.074-7.526zM435.2 652.8c-6.758 0-13.312 2.714-18.074 7.526s-7.526 11.366-7.526 18.074 2.714 13.363 7.526 18.074c4.762 4.762 11.366 7.526 18.074 7.526s13.363-2.714 18.074-7.526c4.762-4.762 7.526-11.366 7.526-18.074s-2.714-13.363-7.526-18.074c-4.762-4.762-11.366-7.526-18.074-7.526zM947.2 652.8h-409.6c-14.131 0-25.6 11.469-25.6 25.6s11.469 25.6 25.6 25.6h409.6c14.131 0 25.6-11.469 25.6-25.6s-11.469-25.6-25.6-25.6zM25.6 550.4c-6.758 0-13.312 2.714-18.074 7.526s-7.526 11.366-7.526 18.074 2.714 13.363 7.526 18.074c4.762 4.762 11.366 7.526 18.074 7.526s13.363-2.714 18.074-7.526c4.762-4.762 7.526-11.366 7.526-18.074s-2.714-13.363-7.526-18.074c-4.762-4.762-11.366-7.526-18.074-7.526zM128 550.4c-6.758 0-13.363 2.714-18.074 7.526s-7.526 11.366-7.526 18.074 2.714 13.363 7.526 18.074c4.762 4.762 11.366 7.526 18.074 7.526s13.363-2.714 18.074-7.526c4.762-4.762 7.526-11.366 7.526-18.074s-2.714-13.363-7.526-18.074c-4.762-4.762-11.366-7.526-18.074-7.526zM230.4 550.4c-6.758 0-13.363 2.714-18.074 7.526s-7.526 11.366-7.526 18.074 2.714 13.363 7.526 18.074c4.762 4.762 11.366 7.526 18.074 7.526s13.363-2.714 18.074-7.526c4.762-4.762 7.526-11.366 7.526-18.074s-2.714-13.312-7.526-18.074c-4.762-4.762-11.366-7.526-18.074-7.526zM332.8 550.4c-6.758 0-13.312 2.714-18.074 7.526s-7.526 11.366-7.526 18.074 2.714 13.363 7.526 18.074c4.762 4.762 11.366 7.526 18.074 7.526s13.312-2.714 18.074-7.526c4.762-4.762 7.526-11.366 7.526-18.074s-2.714-13.363-7.526-18.074c-4.762-4.762-11.366-7.526-18.074-7.526zM435.2 550.4c-6.758 0-13.363 2.714-18.074 7.526s-7.526 11.366-7.526 18.074 2.714 13.312 7.526 18.074 11.366 7.526 18.074 7.526 13.312-2.714 18.074-7.526c4.762-4.762 7.526-11.366 7.526-18.074s-2.714-13.363-7.526-18.074c-4.762-4.762-11.366-7.526-18.074-7.526zM947.2 550.4h-409.6c-14.131 0-25.6 11.469-25.6 25.6s11.469 25.6 25.6 25.6h409.6c14.131 0 25.6-11.469 25.6-25.6s-11.469-25.6-25.6-25.6zM25.6 448c-6.758 0-13.312 2.714-18.074 7.526s-7.526 11.366-7.526 18.074 2.714 13.363 7.526 18.074c4.762 4.762 11.366 7.526 18.074 7.526s13.363-2.714 18.074-7.526c4.762-4.762 7.526-11.366 7.526-18.074s-2.714-13.312-7.526-18.074-11.366-7.526-18.074-7.526zM128 448c-6.758 0-13.312 2.714-18.074 7.526s-7.526 11.366-7.526 18.074 2.714 13.363 7.526 18.074c4.762 4.762 11.366 7.526 18.074 7.526s13.363-2.714 18.074-7.526c4.762-4.762 7.526-11.366 7.526-18.074s-2.714-13.363-7.526-18.074c-4.762-4.762-11.366-7.526-18.074-7.526zM230.4 448c-6.758 0-13.312 2.714-18.074 7.526s-7.526 11.366-7.526 18.074 2.714 13.363 7.526 18.074c4.762 4.762 11.366 7.526 18.074 7.526s13.363-2.714 18.074-7.526c4.762-4.762 7.526-11.366 7.526-18.074s-2.714-13.312-7.526-18.074-11.366-7.526-18.074-7.526zM332.8 448c-6.758 0-13.312 2.714-18.074 7.526s-7.526 11.366-7.526 18.074 2.714 13.363 7.526 18.074c4.762 4.762 11.366 7.526 18.074 7.526s13.363-2.714 18.074-7.526c4.762-4.762 7.526-11.366 7.526-18.074s-2.714-13.312-7.526-18.074-11.366-7.526-18.074-7.526zM435.2 448c-6.758 0-13.312 2.714-18.074 7.526s-7.526 11.366-7.526 18.074 2.714 13.312 7.526 18.074c4.762 4.762 11.366 7.526 18.074 7.526s13.363-2.714 18.074-7.526c4.762-4.762 7.526-11.366 7.526-18.074s-2.714-13.363-7.526-18.074c-4.762-4.762-11.366-7.526-18.074-7.526zM947.2 448h-409.6c-14.131 0-25.6 11.469-25.6 25.6s11.469 25.6 25.6 25.6h409.6c14.131 0 25.6-11.469 25.6-25.6s-11.469-25.6-25.6-25.6zM25.6-64c-14.131 0-25.6 11.469-25.6 25.6v409.6c0 14.131 11.469 25.6 25.6 25.6s25.6-11.469 25.6-25.6v-409.6c0-14.131-11.469-25.6-25.6-25.6zM128-64c-14.131 0-25.6 11.469-25.6 25.6v409.6c0 14.131 11.469 25.6 25.6 25.6s25.6-11.469 25.6-25.6v-409.6c0-14.131-11.469-25.6-25.6-25.6zM230.4-64c-14.131 0-25.6 11.469-25.6 25.6v409.6c0 14.131 11.469 25.6 25.6 25.6s25.6-11.469 25.6-25.6v-409.6c0-14.131-11.469-25.6-25.6-25.6zM332.8-64c-14.131 0-25.6 11.469-25.6 25.6v409.6c0 14.131 11.469 25.6 25.6 25.6s25.6-11.469 25.6-25.6v-409.6c0-14.131-11.469-25.6-25.6-25.6zM435.2-64c-14.131 0-25.6 11.469-25.6 25.6v409.6c0 14.131 11.469 25.6 25.6 25.6s25.6-11.469 25.6-25.6v-409.6c0-14.131-11.469-25.6-25.6-25.6zM947.2 396.8h-409.6c-14.131 0-25.6-11.469-25.6-25.6v-409.6c0-14.131 11.469-25.6 25.6-25.6h409.6c14.131 0 25.6 11.469 25.6 25.6v409.6c0 14.131-11.469 25.6-25.6 25.6zM716.8 192h-51.2v51.2h51.2v-51.2zM768 243.2h51.2v-51.2h-51.2v51.2zM614.4 192h-51.2v51.2h51.2v-51.2zM614.4 140.8v-51.2h-51.2v51.2h51.2zM665.6 140.8h51.2v-51.2h-51.2v51.2zM768 140.8h51.2v-51.2h-51.2v51.2zM870.4 140.8h51.2v-51.2h-51.2v51.2zM870.4 192v51.2h51.2v-51.2h-51.2zM870.4 294.4v51.2h51.2v-51.2h-51.2zM819.2 294.4h-51.2v51.2h51.2v-51.2zM716.8 294.4h-51.2v51.2h51.2v-51.2zM614.4 294.4h-51.2v51.2h51.2v-51.2zM563.2 38.4h51.2v-51.2h-51.2v51.2zM665.6 38.4h51.2v-51.2h-51.2v51.2zM768 38.4h51.2v-51.2h-51.2v51.2zM870.4 38.4h51.2v-51.2h-51.2v51.2z" />
<glyph unicode="&#xe925;" glyph-name="eye-dropper" d="M972.8 756.48c0 40.704-15.821 78.95-44.595 107.725s-67.021 44.595-107.725 44.595c-40.704 0-78.95-15.821-107.725-44.595l-175.206-175.206-33.075 33.075c-9.984 9.984-26.214 9.984-36.198 0s-9.984-26.214 0-36.198l58.675-58.675-364.288-364.288c-19.917-19.917-31.693-46.285-33.69-73.882-44.646-11.059-77.824-51.405-77.824-99.43 0-56.474 45.926-102.4 102.4-102.4 47.974 0 88.371 33.178 99.43 77.824 27.597 1.997 54.016 13.773 73.882 33.69l364.288 364.288 58.675-58.675c5.018-5.018 11.571-7.475 18.125-7.475s13.107 2.509 18.125 7.475c9.984 9.984 9.984 26.214 0 36.198l-33.075 33.075 175.206 175.206c28.774 28.774 44.595 67.021 44.595 107.725zM290.714 134.912c-14.694-14.694-35.738-21.504-56.269-18.176-7.526 1.229-15.155-0.973-20.89-5.99s-8.96-12.288-8.755-19.917c0-0.41 0-0.819 0-1.229 0-28.211-22.989-51.2-51.2-51.2s-51.2 22.989-51.2 51.2 22.989 51.2 51.2 51.2c0.41 0 0.819 0 1.229 0 7.578-0.154 14.899 3.021 19.866 8.755s7.168 13.363 5.99 20.89c-3.277 20.531 3.482 41.574 18.176 56.269l364.288 364.288 91.802-91.802-364.288-364.288zM892.006 685.005l-175.206-175.206-143.002 143.002 175.206 175.206c19.098 19.098 44.493 29.594 71.475 29.594s52.378-10.496 71.475-29.594 29.594-44.493 29.594-71.475-10.496-52.378-29.594-71.475z" />
<glyph unicode="&#xe926;" glyph-name="palette" d="M332.8 550.4c-42.342 0-76.8 34.458-76.8 76.8s34.458 76.8 76.8 76.8 76.8-34.458 76.8-76.8-34.458-76.8-76.8-76.8zM332.8 652.8c-14.131 0-25.6-11.469-25.6-25.6s11.469-25.6 25.6-25.6 25.6 11.469 25.6 25.6-11.469 25.6-25.6 25.6zM179.2 396.8c-42.342 0-76.8 34.458-76.8 76.8s34.458 76.8 76.8 76.8 76.8-34.458 76.8-76.8c0-42.342-34.458-76.8-76.8-76.8zM179.2 499.2c-14.131 0-25.6-11.469-25.6-25.6s11.469-25.6 25.6-25.6 25.6 11.469 25.6 25.6-11.469 25.6-25.6 25.6zM537.6 601.6c-42.342 0-76.8 34.458-76.8 76.8s34.458 76.8 76.8 76.8c42.342 0 76.8-34.458 76.8-76.8s-34.458-76.8-76.8-76.8zM537.6 704c-14.131 0-25.6-11.469-25.6-25.6s11.469-25.6 25.6-25.6 25.6 11.469 25.6 25.6-11.469 25.6-25.6 25.6zM512-12.8c-135.936 0-263.936 44.749-360.448 126.003-47.36 39.885-84.582 86.374-110.643 138.291-27.187 54.118-40.96 111.616-40.96 170.906s13.773 116.838 40.96 170.906c26.061 51.917 63.283 98.406 110.643 138.291 96.461 81.254 224.461 126.003 360.448 126.003s263.936-44.749 360.448-126.003c47.36-39.885 84.582-86.374 110.643-138.291 27.187-54.118 40.96-111.616 40.96-170.906 0-94.822-42.24-128.614-81.766-128.614-33.024 0-67.021 23.142-93.286 63.437-16.589 25.446-34.099 39.475-49.306 39.475-5.069 0-10.086-1.536-15.309-4.659-28.774-17.203-11.776-63.744 0.922-89.907 41.062-84.685 44.442-158.618 9.83-213.914-41.984-67.072-137.267-101.069-283.136-101.069zM512 806.4c-254.106 0-460.8-172.237-460.8-384s206.694-384 460.8-384c69.939 0 126.669 8.141 168.602 24.218 33.229 12.749 57.19 30.515 71.168 52.838 31.283 49.971 10.445 116.941-12.544 164.352-49.152 101.376-3.226 143.002 18.842 156.211 13.21 7.885 27.187 11.93 41.626 11.93 23.45 0 58.47-10.906 92.211-62.771 19.302-29.645 39.219-40.192 50.381-40.192 18.278 0 30.566 31.13 30.566 77.414 0 211.763-206.694 384-460.8 384zM563.2 140.8c-56.474 0-102.4 45.926-102.4 102.4s45.926 102.4 102.4 102.4c56.474 0 102.4-45.926 102.4-102.4s-45.926-102.4-102.4-102.4zM563.2 294.4c-28.211 0-51.2-22.989-51.2-51.2s22.989-51.2 51.2-51.2 51.2 22.989 51.2 51.2-22.989 51.2-51.2 51.2z" />
<glyph unicode="&#xe927;" glyph-name="color-sampler" d="M691.2 499.2c-42.342 0-76.8 34.458-76.8 76.8s34.458 76.8 76.8 76.8 76.8-34.458 76.8-76.8-34.458-76.8-76.8-76.8zM691.2 601.6c-14.131 0-25.6-11.469-25.6-25.6s11.469-25.6 25.6-25.6 25.6 11.469 25.6 25.6-11.469 25.6-25.6 25.6zM358.4 8.448c-20.531 0-39.834 7.987-54.323 22.426l-260.403 260.403c-14.49 14.49-22.426 33.741-22.426 54.323s7.987 39.834 22.426 54.323l490.803 490.803c14.49 14.49 33.741 22.426 54.323 22.426s39.834-7.987 54.323-22.426l260.403-260.403c29.952-29.952 29.952-78.643 0-108.595l-490.803-490.803c-14.49-14.49-33.741-22.426-54.323-22.426zM588.8 861.952c-6.861 0-13.312-2.662-18.125-7.424l-490.803-490.803c-4.813-4.813-7.424-11.213-7.424-18.125s2.662-13.312 7.424-18.074l260.403-260.403c4.813-4.813 11.213-7.424 18.125-7.424s13.312 2.662 18.125 7.424l490.803 490.803c9.984 9.984 9.984 26.214 0 36.198l-260.403 260.403c-4.813 4.813-11.213 7.424-18.125 7.424zM574.618-63.027c-15.053 0-29.747 4.557-42.496 13.312l-60.211 41.37c-11.674 7.987-14.592 23.962-6.605 35.584s23.962 14.592 35.584 6.605l60.211-41.37c5.478-3.738 11.981-5.12 18.33-3.84s11.827 5.069 15.411 10.65l279.603 436.89c7.629 11.93 23.45 15.36 35.379 7.782s15.36-23.45 7.782-35.379l-279.603-436.89c-11.11-17.357-28.314-29.184-48.384-33.229-5.018-1.024-10.035-1.485-15.002-1.485zM790.784-27.238c-6.093 0-12.186 0.973-18.074 2.918l-38.4 12.8c-13.414 4.454-20.685 18.944-16.179 32.358s18.944 20.685 32.358 16.179l38.4-12.8c0.717-0.256 2.816-0.922 6.451 1.024 4.352 2.355 9.933 8.294 12.595 18.022l63.334 232.192c3.738 13.619 17.818 21.658 31.437 17.971s21.658-17.818 17.971-31.437l-63.334-232.192c-5.99-21.914-19.763-40.038-37.837-49.715-9.165-4.915-18.944-7.373-28.723-7.373z" />
<glyph unicode="&#xe928;" glyph-name="bucket" d="M870.4 627.2c0 0.307 0 0.614 0 0.973 0 0 0 0 0 0-0.256 15.667-7.475 38.554-39.424 60.109-20.275 13.722-48.589 25.805-84.122 35.942-26.982 7.731-57.344 14.080-90.112 18.995-25.651 48.23-125.85 216.781-272.742 216.781-57.395 0-87.398-27.802-102.502-51.149-24.627-38.042-31.283-96.922-20.070-175.667-12.339-2.765-24.218-5.734-35.482-8.96-35.533-10.138-63.795-22.221-84.122-35.942-31.949-21.555-39.168-44.39-39.424-60.109 0 0 0 0 0 0 0-0.307 0-0.666 0-0.973 0-4.608 0.614-9.83 2.253-15.514l96.307-577.843c3.482-20.992 18.893-44.749 36.557-56.525 6.349-4.25 67.174-41.318 248.883-41.318s242.534 37.069 248.883 41.318c17.715 11.776 33.075 35.584 36.557 56.525l96.307 577.843c1.638 5.683 2.253 10.906 2.253 15.514zM819.046 628.326l-0.717-4.147c-4.096-8.448-24.013-27.187-85.555-44.8-65.485-18.688-152.986-29.030-246.374-29.030-44.339 0-87.296 2.304-127.232 6.758-6.861 20.019-13.773 41.523-20.173 63.642-7.322 25.19-13.363 48.998-18.125 71.373 50.125 7.731 106.701 11.827 165.581 11.827 52.48 0 103.117-3.277 148.992-9.421 0.717-0.154 1.434-0.205 2.15-0.307 34.97-4.762 67.123-11.264 95.232-19.302 66.611-19.046 84.48-39.373 86.221-46.643zM614.4 320c0-14.131-11.469-25.6-25.6-25.6s-25.6 11.469-25.6 25.6c0.102 7.782 9.574 36.71 17.101 59.904 2.765 8.448 5.632 17.203 8.499 26.214 2.867-9.011 5.734-17.818 8.499-26.214 7.578-23.245 16.998-52.173 17.101-59.904zM324.454 881.050c12.237 18.944 31.181 27.75 59.546 27.75 96 0 172.39-99.43 209.101-158.106-34.202 2.97-70.042 4.506-106.701 4.506-61.798 0-121.446-4.403-174.592-12.595-8.909 63.846-4.762 111.514 12.646 138.445zM240.026 674.97c9.677 2.765 19.866 5.325 30.464 7.731 5.069-23.91 11.52-49.306 19.354-76.237 4.096-14.131 8.346-27.955 12.698-41.267-22.426 3.994-43.418 8.704-62.464 14.182-61.542 17.562-81.459 36.301-85.555 44.8l-0.717 4.147c1.792 7.27 19.61 27.597 86.221 46.643zM721.357 42.24c-1.126-6.861-8.397-18.125-14.234-22.17-3.123-1.792-59.085-32.87-220.723-32.87s-217.651 31.078-220.723 32.87c-5.837 4.045-13.056 15.309-14.234 22.17l-84.992 509.901c16.691-8.090 36.557-15.411 59.494-21.965 28.467-8.141 60.621-14.746 95.386-19.763 20.582-56.627 38.195-96.051 39.322-98.509 4.25-9.472 13.619-15.104 23.347-15.104 3.533 0 7.066 0.717 10.496 2.253 12.902 5.786 18.637 20.941 12.851 33.843-0.205 0.512-12.749 28.518-28.877 70.912 34.56-3.021 70.861-4.608 107.93-4.608 25.344 0 50.278 0.717 74.598 2.15-5.12-31.386-18.278-71.731-29.338-105.574-12.902-39.578-19.661-60.928-19.661-75.776 0-42.342 34.458-76.8 76.8-76.8s76.8 34.458 76.8 76.8c0 14.848-6.758 36.198-19.661 75.776-11.571 35.533-25.498 78.182-30.054 110.131 48.486 5.222 93.030 13.414 130.918 24.269 22.886 6.554 42.803 13.926 59.494 21.965l-84.992-509.901z" />
<glyph unicode="&#xe929;" glyph-name="gradient" d="M947.2-64h-870.4c-42.342 0-76.8 34.458-76.8 76.8v870.4c0 42.342 34.458 76.8 76.8 76.8h870.4c42.342 0 76.8-34.458 76.8-76.8v-870.4c0-42.342-34.458-76.8-76.8-76.8zM76.8 908.8c-14.131 0-25.6-11.469-25.6-25.6v-870.4c0-14.131 11.469-25.6 25.6-25.6h870.4c14.131 0 25.6 11.469 25.6 25.6v870.4c0 14.131-11.469 25.6-25.6 25.6h-870.4zM256 832c0-14.131-11.469-25.6-25.6-25.6s-25.6 11.469-25.6 25.6c0 14.131 11.469 25.6 25.6 25.6s25.6-11.469 25.6-25.6zM256 780.8c0-14.131-11.469-25.6-25.6-25.6s-25.6 11.469-25.6 25.6c0 14.131 11.469 25.6 25.6 25.6s25.6-11.469 25.6-25.6zM256 729.6c0-14.131-11.469-25.6-25.6-25.6s-25.6 11.469-25.6 25.6c0 14.131 11.469 25.6 25.6 25.6s25.6-11.469 25.6-25.6zM256 678.4c0-14.131-11.469-25.6-25.6-25.6s-25.6 11.469-25.6 25.6c0 14.131 11.469 25.6 25.6 25.6s25.6-11.469 25.6-25.6zM256 627.2c0-14.131-11.469-25.6-25.6-25.6s-25.6 11.469-25.6 25.6c0 14.131 11.469 25.6 25.6 25.6s25.6-11.469 25.6-25.6zM256 576c0-14.131-11.469-25.6-25.6-25.6s-25.6 11.469-25.6 25.6c0 14.131 11.469 25.6 25.6 25.6s25.6-11.469 25.6-25.6zM256 524.8c0-14.131-11.469-25.6-25.6-25.6s-25.6 11.469-25.6 25.6c0 14.131 11.469 25.6 25.6 25.6s25.6-11.469 25.6-25.6zM256 473.6c0-14.131-11.469-25.6-25.6-25.6s-25.6 11.469-25.6 25.6c0 14.131 11.469 25.6 25.6 25.6s25.6-11.469 25.6-25.6zM256 422.4c0-14.131-11.469-25.6-25.6-25.6s-25.6 11.469-25.6 25.6c0 14.131 11.469 25.6 25.6 25.6s25.6-11.469 25.6-25.6zM256 371.2c0-14.131-11.469-25.6-25.6-25.6s-25.6 11.469-25.6 25.6c0 14.131 11.469 25.6 25.6 25.6s25.6-11.469 25.6-25.6zM256 320c0-14.131-11.469-25.6-25.6-25.6s-25.6 11.469-25.6 25.6c0 14.131 11.469 25.6 25.6 25.6s25.6-11.469 25.6-25.6zM256 268.8c0-14.131-11.469-25.6-25.6-25.6s-25.6 11.469-25.6 25.6c0 14.131 11.469 25.6 25.6 25.6s25.6-11.469 25.6-25.6zM256 217.6c0-14.131-11.469-25.6-25.6-25.6s-25.6 11.469-25.6 25.6c0 14.131 11.469 25.6 25.6 25.6s25.6-11.469 25.6-25.6zM256 166.4c0-14.131-11.469-25.6-25.6-25.6s-25.6 11.469-25.6 25.6c0 14.131 11.469 25.6 25.6 25.6s25.6-11.469 25.6-25.6zM256 115.2c0-14.131-11.469-25.6-25.6-25.6s-25.6 11.469-25.6 25.6c0 14.131 11.469 25.6 25.6 25.6s25.6-11.469 25.6-25.6zM307.2 832c0-14.131-11.469-25.6-25.6-25.6s-25.6 11.469-25.6 25.6c0 14.131 11.469 25.6 25.6 25.6s25.6-11.469 25.6-25.6zM307.2 729.6c0-14.131-11.469-25.6-25.6-25.6s-25.6 11.469-25.6 25.6c0 14.131 11.469 25.6 25.6 25.6s25.6-11.469 25.6-25.6zM307.2 627.2c0-14.131-11.469-25.6-25.6-25.6s-25.6 11.469-25.6 25.6c0 14.131 11.469 25.6 25.6 25.6s25.6-11.469 25.6-25.6zM307.2 524.8c0-14.131-11.469-25.6-25.6-25.6s-25.6 11.469-25.6 25.6c0 14.131 11.469 25.6 25.6 25.6s25.6-11.469 25.6-25.6zM307.2 422.4c0-14.131-11.469-25.6-25.6-25.6s-25.6 11.469-25.6 25.6c0 14.131 11.469 25.6 25.6 25.6s25.6-11.469 25.6-25.6zM307.2 320c0-14.131-11.469-25.6-25.6-25.6s-25.6 11.469-25.6 25.6c0 14.131 11.469 25.6 25.6 25.6s25.6-11.469 25.6-25.6zM307.2 217.6c0-14.131-11.469-25.6-25.6-25.6s-25.6 11.469-25.6 25.6c0 14.131 11.469 25.6 25.6 25.6s25.6-11.469 25.6-25.6zM307.2 115.2c0-14.131-11.469-25.6-25.6-25.6s-25.6 11.469-25.6 25.6c0 14.131 11.469 25.6 25.6 25.6s25.6-11.469 25.6-25.6zM358.4 780.8c0-14.131-11.469-25.6-25.6-25.6s-25.6 11.469-25.6 25.6c0 14.131 11.469 25.6 25.6 25.6s25.6-11.469 25.6-25.6zM358.4 678.4c0-14.131-11.469-25.6-25.6-25.6s-25.6 11.469-25.6 25.6c0 14.131 11.469 25.6 25.6 25.6s25.6-11.469 25.6-25.6zM358.4 576c0-14.131-11.469-25.6-25.6-25.6s-25.6 11.469-25.6 25.6c0 14.131 11.469 25.6 25.6 25.6s25.6-11.469 25.6-25.6zM358.4 473.6c0-14.131-11.469-25.6-25.6-25.6s-25.6 11.469-25.6 25.6c0 14.131 11.469 25.6 25.6 25.6s25.6-11.469 25.6-25.6zM358.4 371.2c0-14.131-11.469-25.6-25.6-25.6s-25.6 11.469-25.6 25.6c0 14.131 11.469 25.6 25.6 25.6s25.6-11.469 25.6-25.6zM358.4 268.8c0-14.131-11.469-25.6-25.6-25.6s-25.6 11.469-25.6 25.6c0 14.131 11.469 25.6 25.6 25.6s25.6-11.469 25.6-25.6zM358.4 166.4c0-14.131-11.469-25.6-25.6-25.6s-25.6 11.469-25.6 25.6c0 14.131 11.469 25.6 25.6 25.6s25.6-11.469 25.6-25.6zM358.4 64c0-14.131-11.469-25.6-25.6-25.6s-25.6 11.469-25.6 25.6c0 14.131 11.469 25.6 25.6 25.6s25.6-11.469 25.6-25.6zM460.8 832c0-14.131-11.469-25.6-25.6-25.6s-25.6 11.469-25.6 25.6c0 14.131 11.469 25.6 25.6 25.6s25.6-11.469 25.6-25.6zM460.8 729.6c0-14.131-11.469-25.6-25.6-25.6s-25.6 11.469-25.6 25.6c0 14.131 11.469 25.6 25.6 25.6s25.6-11.469 25.6-25.6zM460.8 627.2c0-14.131-11.469-25.6-25.6-25.6s-25.6 11.469-25.6 25.6c0 14.131 11.469 25.6 25.6 25.6s25.6-11.469 25.6-25.6zM460.8 524.8c0-14.131-11.469-25.6-25.6-25.6s-25.6 11.469-25.6 25.6c0 14.131 11.469 25.6 25.6 25.6s25.6-11.469 25.6-25.6zM460.8 422.4c0-14.131-11.469-25.6-25.6-25.6s-25.6 11.469-25.6 25.6c0 14.131 11.469 25.6 25.6 25.6s25.6-11.469 25.6-25.6zM460.8 320c0-14.131-11.469-25.6-25.6-25.6s-25.6 11.469-25.6 25.6c0 14.131 11.469 25.6 25.6 25.6s25.6-11.469 25.6-25.6zM460.8 217.6c0-14.131-11.469-25.6-25.6-25.6s-25.6 11.469-25.6 25.6c0 14.131 11.469 25.6 25.6 25.6s25.6-11.469 25.6-25.6zM460.8 115.2c0-14.131-11.469-25.6-25.6-25.6s-25.6 11.469-25.6 25.6c0 14.131 11.469 25.6 25.6 25.6s25.6-11.469 25.6-25.6zM563.2 780.8c0-14.131-11.469-25.6-25.6-25.6s-25.6 11.469-25.6 25.6c0 14.131 11.469 25.6 25.6 25.6s25.6-11.469 25.6-25.6zM563.2 678.4c0-14.131-11.469-25.6-25.6-25.6s-25.6 11.469-25.6 25.6c0 14.131 11.469 25.6 25.6 25.6s25.6-11.469 25.6-25.6zM563.2 576c0-14.131-11.469-25.6-25.6-25.6s-25.6 11.469-25.6 25.6c0 14.131 11.469 25.6 25.6 25.6s25.6-11.469 25.6-25.6zM563.2 473.6c0-14.131-11.469-25.6-25.6-25.6s-25.6 11.469-25.6 25.6c0 14.131 11.469 25.6 25.6 25.6s25.6-11.469 25.6-25.6zM563.2 371.2c0-14.131-11.469-25.6-25.6-25.6s-25.6 11.469-25.6 25.6c0 14.131 11.469 25.6 25.6 25.6s25.6-11.469 25.6-25.6zM563.2 268.8c0-14.131-11.469-25.6-25.6-25.6s-25.6 11.469-25.6 25.6c0 14.131 11.469 25.6 25.6 25.6s25.6-11.469 25.6-25.6zM563.2 166.4c0-14.131-11.469-25.6-25.6-25.6s-25.6 11.469-25.6 25.6c0 14.131 11.469 25.6 25.6 25.6s25.6-11.469 25.6-25.6zM563.2 64c0-14.131-11.469-25.6-25.6-25.6s-25.6 11.469-25.6 25.6c0 14.131 11.469 25.6 25.6 25.6s25.6-11.469 25.6-25.6zM256 64c0-14.131-11.469-25.6-25.6-25.6s-25.6 11.469-25.6 25.6c0 14.131 11.469 25.6 25.6 25.6s25.6-11.469 25.6-25.6zM204.8 832c0-14.131-11.469-25.6-25.6-25.6s-25.6 11.469-25.6 25.6c0 14.131 11.469 25.6 25.6 25.6s25.6-11.469 25.6-25.6zM204.8 780.8c0-14.131-11.469-25.6-25.6-25.6s-25.6 11.469-25.6 25.6c0 14.131 11.469 25.6 25.6 25.6s25.6-11.469 25.6-25.6zM204.8 729.6c0-14.131-11.469-25.6-25.6-25.6s-25.6 11.469-25.6 25.6c0 14.131 11.469 25.6 25.6 25.6s25.6-11.469 25.6-25.6zM204.8 678.4c0-14.131-11.469-25.6-25.6-25.6s-25.6 11.469-25.6 25.6c0 14.131 11.469 25.6 25.6 25.6s25.6-11.469 25.6-25.6zM204.8 627.2c0-14.131-11.469-25.6-25.6-25.6s-25.6 11.469-25.6 25.6c0 14.131 11.469 25.6 25.6 25.6s25.6-11.469 25.6-25.6zM204.8 576c0-14.131-11.469-25.6-25.6-25.6s-25.6 11.469-25.6 25.6c0 14.131 11.469 25.6 25.6 25.6s25.6-11.469 25.6-25.6zM204.8 524.8c0-14.131-11.469-25.6-25.6-25.6s-25.6 11.469-25.6 25.6c0 14.131 11.469 25.6 25.6 25.6s25.6-11.469 25.6-25.6zM204.8 473.6c0-14.131-11.469-25.6-25.6-25.6s-25.6 11.469-25.6 25.6c0 14.131 11.469 25.6 25.6 25.6s25.6-11.469 25.6-25.6zM204.8 422.4c0-14.131-11.469-25.6-25.6-25.6s-25.6 11.469-25.6 25.6c0 14.131 11.469 25.6 25.6 25.6s25.6-11.469 25.6-25.6zM204.8 371.2c0-14.131-11.469-25.6-25.6-25.6s-25.6 11.469-25.6 25.6c0 14.131 11.469 25.6 25.6 25.6s25.6-11.469 25.6-25.6zM204.8 320c0-14.131-11.469-25.6-25.6-25.6s-25.6 11.469-25.6 25.6c0 14.131 11.469 25.6 25.6 25.6s25.6-11.469 25.6-25.6zM204.8 268.8c0-14.131-11.469-25.6-25.6-25.6s-25.6 11.469-25.6 25.6c0 14.131 11.469 25.6 25.6 25.6s25.6-11.469 25.6-25.6zM204.8 217.6c0-14.131-11.469-25.6-25.6-25.6s-25.6 11.469-25.6 25.6c0 14.131 11.469 25.6 25.6 25.6s25.6-11.469 25.6-25.6zM204.8 166.4c0-14.131-11.469-25.6-25.6-25.6s-25.6 11.469-25.6 25.6c0 14.131 11.469 25.6 25.6 25.6s25.6-11.469 25.6-25.6zM204.8 115.2c0-14.131-11.469-25.6-25.6-25.6s-25.6 11.469-25.6 25.6c0 14.131 11.469 25.6 25.6 25.6s25.6-11.469 25.6-25.6zM204.8 64c0-14.131-11.469-25.6-25.6-25.6s-25.6 11.469-25.6 25.6c0 14.131 11.469 25.6 25.6 25.6s25.6-11.469 25.6-25.6zM665.6 832c0-14.131-11.469-25.6-25.6-25.6s-25.6 11.469-25.6 25.6c0 14.131 11.469 25.6 25.6 25.6s25.6-11.469 25.6-25.6zM665.6 627.2c0-14.131-11.469-25.6-25.6-25.6s-25.6 11.469-25.6 25.6c0 14.131 11.469 25.6 25.6 25.6s25.6-11.469 25.6-25.6zM665.6 422.4c0-14.131-11.469-25.6-25.6-25.6s-25.6 11.469-25.6 25.6c0 14.131 11.469 25.6 25.6 25.6s25.6-11.469 25.6-25.6zM665.6 217.6c0-14.131-11.469-25.6-25.6-25.6s-25.6 11.469-25.6 25.6c0 14.131 11.469 25.6 25.6 25.6s25.6-11.469 25.6-25.6zM768 729.6c0-14.131-11.469-25.6-25.6-25.6s-25.6 11.469-25.6 25.6c0 14.131 11.469 25.6 25.6 25.6s25.6-11.469 25.6-25.6zM768 524.8c0-14.131-11.469-25.6-25.6-25.6s-25.6 11.469-25.6 25.6c0 14.131 11.469 25.6 25.6 25.6s25.6-11.469 25.6-25.6zM768 320c0-14.131-11.469-25.6-25.6-25.6s-25.6 11.469-25.6 25.6c0 14.131 11.469 25.6 25.6 25.6s25.6-11.469 25.6-25.6zM768 115.2c0-14.131-11.469-25.6-25.6-25.6s-25.6 11.469-25.6 25.6c0 14.131 11.469 25.6 25.6 25.6s25.6-11.469 25.6-25.6zM128 38.4c-14.131 0-25.6 11.469-25.6 25.6v768c0 14.131 11.469 25.6 25.6 25.6s25.6-11.469 25.6-25.6v-768c0-14.131-11.469-25.6-25.6-25.6z" />
<glyph unicode="&#xe92a;" glyph-name="gradient2" d="M947.2-64h-870.4c-42.342 0-76.8 34.458-76.8 76.8v870.4c0 42.342 34.458 76.8 76.8 76.8h870.4c42.342 0 76.8-34.458 76.8-76.8v-870.4c0-42.342-34.458-76.8-76.8-76.8zM76.8 908.8c-14.131 0-25.6-11.469-25.6-25.6v-870.4c0-14.131 11.469-25.6 25.6-25.6h870.4c14.131 0 25.6 11.469 25.6 25.6v870.4c0 14.131-11.469 25.6-25.6 25.6h-870.4zM548.198 448l365.875 365.875c9.984 9.984 9.984 26.214 0 36.198s-26.214 9.984-36.198 0l-365.875-365.875-40.602 40.602 289.075 289.075c9.984 9.984 9.984 26.214 0 36.198s-26.214 9.984-36.198 0l-289.075-289.075-40.602 40.602 212.275 212.275c9.984 9.984 9.984 26.214 0 36.198s-26.214 9.984-36.198 0l-212.275-212.275-40.602 40.602 135.475 135.475c9.984 9.984 9.984 26.214 0 36.198s-26.214 9.984-36.198 0l-135.475-135.475-40.602 40.602 58.675 58.675c9.984 9.984 9.984 26.214 0 36.198s-26.214 9.984-36.198 0l-58.675-58.675-58.675 58.675c-9.984 9.984-26.214 9.984-36.198 0s-9.984-26.214 0-36.198l58.675-58.675-58.675-58.675c-9.984-9.984-9.984-26.214 0-36.198l58.675-58.675-58.675-58.675c-9.984-9.984-9.984-26.214 0-36.198l58.675-58.675-58.675-58.675c-9.984-9.984-9.984-26.214 0-36.198l58.675-58.675-58.675-58.675c-9.984-9.984-9.984-26.214 0-36.198l58.675-58.675-58.675-58.675c-9.984-9.984-9.984-26.214 0-36.198 5.018-5.018 11.571-7.475 18.125-7.475s13.107 2.509 18.125 7.475l58.675 58.675 58.675-58.675c5.018-5.018 11.571-7.475 18.125-7.475s13.107 2.509 18.125 7.475c9.984 9.984 9.984 26.214 0 36.198l-58.675 58.675 40.602 40.602 135.475-135.475c5.018-5.018 11.571-7.475 18.125-7.475s13.107 2.509 18.125 7.475c9.984 9.984 9.984 26.214 0 36.198l-135.475 135.475 40.602 40.602 212.275-212.275c5.018-5.018 11.571-7.475 18.125-7.475s13.107 2.509 18.125 7.475c9.984 9.984 9.984 26.214 0 36.198l-212.275 212.275 40.602 40.602 289.075-289.075c5.018-5.018 11.571-7.475 18.125-7.475s13.107 2.509 18.125 7.475c9.984 9.984 9.984 26.214 0 36.198l-289.075 289.075 40.602 40.602 365.875-365.875c5.018-5.018 11.571-7.475 18.125-7.475s13.107 2.509 18.125 7.475c9.984 9.984 9.984 26.214 0 36.198l-365.875 365.875zM399.002 524.8l-40.602-40.602-40.602 40.602 40.602 40.602 40.602-40.602zM322.202 448l-40.602-40.602-40.602 40.602 40.602 40.602 40.602-40.602zM322.202 601.6l-40.602-40.602-40.602 40.602 40.602 40.602 40.602-40.602zM164.198 678.4l40.602 40.602 40.602-40.602-40.602-40.602-40.602 40.602zM164.198 524.8l40.602 40.602 40.602-40.602-40.602-40.602-40.602 40.602zM164.198 371.2l40.602 40.602 40.602-40.602-40.602-40.602-40.602 40.602zM204.8 176.998l-40.602 40.602 40.602 40.602 40.602-40.602-40.602-40.602zM281.6 253.798l-40.602 40.602 40.602 40.602 40.602-40.602-40.602-40.602zM358.4 330.598l-40.602 40.602 40.602 40.602 40.602-40.602-40.602-40.602zM435.2 407.398l-40.602 40.602 40.602 40.602 40.602-40.602-40.602-40.602z" />
<glyph unicode="&#xe92b;" glyph-name="magic-wand" d="M588.8 601.6c-14.131 0-25.6 11.469-25.6 25.6 0 70.554-57.446 128-128 128-14.131 0-25.6 11.469-25.6 25.6s11.469 25.6 25.6 25.6c70.554 0 128 57.446 128 128 0 14.131 11.469 25.6 25.6 25.6s25.6-11.469 25.6-25.6c0-70.554 57.446-128 128-128 14.131 0 25.6-11.469 25.6-25.6s-11.469-25.6-25.6-25.6c-70.554 0-128-57.446-128-128 0-14.131-11.469-25.6-25.6-25.6zM527.411 780.8c25.088-15.155 46.234-36.25 61.389-61.389 15.155 25.088 36.25 46.234 61.389 61.389-25.088 15.155-46.234 36.25-61.389 61.389-15.155-25.088-36.25-46.234-61.389-61.389zM76.8 448c-14.131 0-25.6 11.469-25.6 25.6s-11.469 25.6-25.6 25.6c-14.131 0-25.6 11.469-25.6 25.6s11.469 25.6 25.6 25.6c14.131 0 25.6 11.469 25.6 25.6s11.469 25.6 25.6 25.6 25.6-11.469 25.6-25.6c0-14.131 11.469-25.6 25.6-25.6s25.6-11.469 25.6-25.6-11.469-25.6-25.6-25.6c-14.131 0-25.6-11.469-25.6-25.6s-11.469-25.6-25.6-25.6zM929.126 143.923l-542.003 542.003c-14.49 14.49-33.741 22.426-54.323 22.426s-39.834-7.987-54.323-22.426l-30.003-30.003c-14.49-14.49-22.426-33.741-22.426-54.323s7.987-39.834 22.426-54.323l542.003-542.003c14.49-14.49 33.741-22.426 54.323-22.426s39.834 7.987 54.323 22.426l30.003 30.003c14.49 14.49 22.426 33.741 22.426 54.323s-7.987 39.834-22.426 54.323zM284.723 619.725l30.003 30.003c4.813 4.813 11.213 7.424 18.125 7.424s13.312-2.662 18.125-7.424l73.677-73.677-66.202-66.202-73.677 73.677c-9.984 9.984-9.984 26.214 0 36.198zM892.877 71.475l-30.003-30.003c-4.813-4.813-11.213-7.424-18.074-7.424s-13.312 2.662-18.074 7.424l-432.077 432.077 66.202 66.202 432.077-432.077c9.984-9.984 9.984-26.214 0-36.198zM179.2 704c-14.131 0-25.6 11.469-25.6 25.6 0 42.342-34.458 76.8-76.8 76.8-14.131 0-25.6 11.469-25.6 25.6s11.469 25.6 25.6 25.6c42.342 0 76.8 34.458 76.8 76.8 0 14.131 11.469 25.6 25.6 25.6s25.6-11.469 25.6-25.6c0-42.342 34.458-76.8 76.8-76.8 14.131 0 25.6-11.469 25.6-25.6s-11.469-25.6-25.6-25.6c-42.342 0-76.8-34.458-76.8-76.8 0-14.131-11.469-25.6-25.6-25.6zM153.498 832c9.728-7.322 18.381-15.974 25.702-25.702 7.322 9.728 15.974 18.381 25.702 25.702-9.728 7.322-18.381 15.974-25.702 25.702-7.322-9.728-15.974-18.381-25.702-25.702zM179.2 192c-14.131 0-25.6 11.469-25.6 25.6 0 42.342-34.458 76.8-76.8 76.8-14.131 0-25.6 11.469-25.6 25.6s11.469 25.6 25.6 25.6c42.342 0 76.8 34.458 76.8 76.8 0 14.131 11.469 25.6 25.6 25.6s25.6-11.469 25.6-25.6c0-42.342 34.458-76.8 76.8-76.8 14.131 0 25.6-11.469 25.6-25.6s-11.469-25.6-25.6-25.6c-42.342 0-76.8-34.458-76.8-76.8 0-14.131-11.469-25.6-25.6-25.6zM153.498 320c9.728-7.322 18.381-15.974 25.702-25.702 7.322 9.728 15.974 18.381 25.702 25.702-9.728 7.322-18.381 15.974-25.702 25.702-7.322-9.728-15.974-18.381-25.702-25.702z" />
<glyph unicode="&#xe92c;" glyph-name="magnet" d="M869.99 887.757c-2.202 12.186-12.8 21.043-25.19 21.043h-204.8c-7.373 0-14.387-3.174-19.251-8.755s-7.066-12.954-6.093-20.224c0.512-3.84 50.995-383.488 50.995-483.021 0-86.118-67.482-153.6-153.6-153.6-84.685 0-153.6 68.915-153.6 153.6 0 96.154 50.483 479.181 50.995 483.021 0.973 7.322-1.28 14.694-6.144 20.224s-11.878 8.704-19.251 8.704h-204.8c-12.39 0-22.989-8.858-25.19-21.043-2.099-11.571-51.61-286.208-51.61-490.957 0-53.606 10.854-106.24 32.205-156.416 20.685-48.538 50.176-92.416 87.603-130.355 78.182-79.206 181.094-122.829 289.741-122.829s211.558 43.622 289.741 122.829c37.478 37.939 66.918 81.818 87.603 130.355 21.402 50.176 32.205 102.81 32.205 156.416 0 204.749-49.51 479.386-51.61 490.957zM823.245 857.6c4.864-28.877 13.978-85.094 22.886-153.037l-157.747-0.512c-7.629 63.642-14.899 120.627-19.2 153.549h154.061zM200.755 857.6h154.112c-4.25-32.768-11.469-89.6-18.995-152.986l-158.054-0.512c8.909 68.147 18.022 124.518 22.938 153.498zM512 38.4c-194.253 0-358.4 164.147-358.4 358.4 0 80.282 8.090 173.312 17.818 256.051l158.413 0.512c-11.776-102.4-22.63-209.818-22.63-256.563 0-112.947 91.853-204.8 204.8-204.8 114.842 0 204.8 89.958 204.8 204.8 0 48.077-10.752 154.573-22.426 256.102l158.157 0.512c9.779-82.893 17.869-176.128 17.869-256.614 0-194.253-164.147-358.4-358.4-358.4z" />
<glyph unicode="&#xe92d;" glyph-name="pencil-ruler" d="M990.925 30.925l-365.875 365.875 329.677 329.677c29.952 29.952 29.952 78.643 0 108.595l-55.603 55.603c-14.49 14.49-33.741 22.426-54.323 22.426s-39.834-7.987-54.323-22.426l-329.677-329.677-365.875 365.875c-16.64 16.64-39.987 21.606-60.928 12.954s-33.946-28.723-33.946-52.326v-874.752c0-42.342 34.458-76.8 76.8-76.8h874.752c23.603 0 43.622 13.005 52.326 33.946s3.686 44.288-12.954 60.928zM332.8 243.2h128c6.81 0 13.312 2.714 18.125 7.475l7.475 7.475 117.402-117.402h-373.402c-14.131 0-25.6 11.469-25.6 25.6v373.402l117.402-117.402-7.475-7.475c-4.813-4.813-7.475-11.315-7.475-18.125v-128c0-14.131 11.469-25.6 25.6-25.6zM450.202 294.4h-91.802v91.802l409.6 409.6 91.802-91.802-409.6-409.6zM844.8 861.952c6.861 0 13.312-2.662 18.125-7.424l55.603-55.603c9.984-9.984 9.984-26.214 0-36.198l-22.477-22.477-91.802 91.802 22.477 22.477c4.813 4.813 11.213 7.424 18.125 7.424zM956.57-10.445c-0.819-1.946-3.174-2.355-5.018-2.355h-874.752c-14.131 0-25.6 11.469-25.6 25.6v76.8h25.6c14.131 0 25.6 11.469 25.6 25.6s-11.469 25.6-25.6 25.6h-25.6v102.4h25.6c14.131 0 25.6 11.469 25.6 25.6s-11.469 25.6-25.6 25.6h-25.6v102.4h25.6c14.131 0 25.6 11.469 25.6 25.6s-11.469 25.6-25.6 25.6h-25.6v102.4h25.6c14.131 0 25.6 11.469 25.6 25.6s-11.469 25.6-25.6 25.6h-25.6v285.952c0 1.843 0.41 4.198 2.355 5.018s3.84-0.563 5.12-1.843l365.875-365.875-66.202-66.202-124.877 124.877c-24.371 24.371-45.517 19.354-53.453 16.077s-26.419-14.694-26.419-49.152v-384c0-42.342 34.458-76.8 76.8-76.8h384c34.509 0 45.875 18.483 49.152 26.419s8.294 29.082-16.077 53.453l-124.877 124.877 66.202 66.202 365.875-365.875c1.28-1.28 2.662-3.226 1.843-5.12z" />
<glyph unicode="&#xe92e;" glyph-name="pencil-ruler2" d="M998.4 652.8c0 141.158-114.842 256-256 256-38.554 0-75.674-8.397-110.234-24.883-2.714-1.28-5.069-3.021-7.066-5.018v0l-540.826-540.826c-3.942-3.942-6.451-9.011-7.219-14.49l-51.2-358.4c-1.126-7.987 1.536-16.026 7.219-21.709 4.813-4.813 11.366-7.475 18.074-7.475 1.178 0 2.406 0.102 3.635 0.256l358.4 51.2c5.478 0.768 10.547 3.328 14.49 7.219l540.416 540.416c0 0 0.051 0.051 0.051 0.051l0.358 0.358c1.997 1.997 3.686 4.352 5.018 7.066 16.538 34.56 24.883 71.68 24.883 110.234zM947.2 652.8c0-29.44-6.093-57.805-18.125-84.326l-58.88-58.88c-5.376 147.046-123.955 265.626-271.002 271.002l58.88 58.88c26.522 12.032 54.886 18.125 84.326 18.125 112.947 0 204.8-91.853 204.8-204.8zM102.656 140.8l21.658 151.757c9.677 1.229 19.456 1.843 29.286 1.843 127.027 0 230.4-103.373 230.4-230.4 0-9.779-0.614-19.61-1.843-29.286l-151.757-21.658c-0.154 70.349-57.344 127.59-127.744 127.744zM543.795 725.197c14.746 2.918 29.85 4.403 45.005 4.403 54.323 0 104.294-18.893 143.718-50.483l-398.848-398.848c-46.387 38.656-105.318 62.72-169.728 65.075l379.802 379.802zM369.92 244.122l398.848 398.848c31.539-39.424 50.483-89.395 50.483-143.718 0-15.155-1.485-30.259-4.403-45.005l-379.802-379.802c-2.355 64.41-26.419 123.341-65.075 169.728zM95.283 89.242c2.355 0.205 4.71 0.358 7.117 0.358 42.342 0 76.8-34.458 76.8-76.8 0-2.406-0.102-4.762-0.358-7.117l-97.485-13.926 13.926 97.485zM332.8 960h-256c-42.342 0-76.8-34.458-76.8-76.8v-512c0-14.131 11.469-25.6 25.6-25.6s25.6 11.469 25.6 25.6v128h76.8c14.131 0 25.6 11.469 25.6 25.6s-11.469 25.6-25.6 25.6h-76.8v51.2h25.6c14.131 0 25.6 11.469 25.6 25.6s-11.469 25.6-25.6 25.6h-25.6v51.2h76.8c14.131 0 25.6 11.469 25.6 25.6s-11.469 25.6-25.6 25.6h-76.8v51.2h25.6c14.131 0 25.6 11.469 25.6 25.6s-11.469 25.6-25.6 25.6h-25.6v25.6c0 14.131 11.469 25.6 25.6 25.6h256c14.131 0 25.6-11.469 25.6-25.6v-102.4c0-14.131 11.469-25.6 25.6-25.6s25.6 11.469 25.6 25.6v102.4c0 42.342-34.458 76.8-76.8 76.8z" />
<glyph unicode="&#xe92f;" glyph-name="compass" d="M537.6 294.4h-102.4c-14.131 0-25.6 11.469-25.6 25.6s11.469 25.6 25.6 25.6h102.4c14.131 0 25.6-11.469 25.6-25.6s-11.469-25.6-25.6-25.6zM793.6 396.8c-14.131 0-25.6-11.469-25.6-25.6v-25.6h-51.2c-14.131 0-25.6-11.469-25.6-25.6s11.469-25.6 25.6-25.6h51.2v-25.6c0-14.131 11.469-25.6 25.6-25.6s25.6 11.469 25.6 25.6v102.4c0 14.131-11.469 25.6-25.6 25.6zM766.515 21.402l-213.811 598.682c37.683 22.886 61.696 64.256 61.696 109.517 0 61.798-44.032 113.51-102.4 125.44v53.76h25.6c14.131 0 25.6 11.469 25.6 25.6s-11.469 25.6-25.6 25.6h-102.4c-14.131 0-25.6-11.469-25.6-25.6s11.469-25.6 25.6-25.6h25.6v-53.76c-58.368-11.878-102.4-63.59-102.4-125.44 0-45.261 24.013-86.63 61.696-109.517l-213.811-598.682c-0.973-2.765-1.485-5.683-1.485-8.602v-51.2c0-14.131 11.469-25.6 25.6-25.6s25.6 11.469 25.6 25.6v46.746l230.4 645.12 230.4-645.12v-46.746c0-14.131 11.469-25.6 25.6-25.6s25.6 11.469 25.6 25.6v51.2c0 2.918-0.512 5.837-1.485 8.602zM486.4 755.2c-10.803 0-20.48-6.81-24.115-16.998l-24.371-68.198c-17.562 14.336-28.314 36.096-28.314 59.597 0 42.342 34.458 76.8 76.8 76.8s76.8-34.458 76.8-76.8c0-23.501-10.803-45.261-28.365-59.597l-24.371 68.198c-3.635 10.189-13.312 16.998-24.115 16.998z" />
<glyph unicode="&#xe930;" glyph-name="aim" d="M486.4 908.8c-14.131 0-25.6-11.469-25.6-25.6v-204.8c0-14.131 11.469-25.6 25.6-25.6s25.6 11.469 25.6 25.6v204.8c0 14.131-11.469 25.6-25.6 25.6zM486.4 192c-14.131 0-25.6-11.469-25.6-25.6v-204.8c0-14.131 11.469-25.6 25.6-25.6s25.6 11.469 25.6 25.6v204.8c0 14.131-11.469 25.6-25.6 25.6zM256 422.4c0 14.131-11.469 25.6-25.6 25.6h-204.8c-14.131 0-25.6-11.469-25.6-25.6s11.469-25.6 25.6-25.6h204.8c14.131 0 25.6 11.469 25.6 25.6zM947.2 448h-204.8c-14.131 0-25.6-11.469-25.6-25.6s11.469-25.6 25.6-25.6h204.8c14.131 0 25.6 11.469 25.6 25.6s-11.469 25.6-25.6 25.6zM829.952 499.2c-11.059 0-21.197 7.168-24.525 18.278-32.154 108.083-115.866 191.795-223.949 223.949-13.568 4.045-21.248 18.278-17.254 31.846s18.278 21.248 31.846 17.254c60.774-18.074 116.736-51.507 161.843-96.563s78.49-101.069 96.563-161.843c4.045-13.568-3.686-27.802-17.254-31.846-2.458-0.717-4.915-1.075-7.322-1.075zM588.8 53.248c-11.059 0-21.197 7.168-24.525 18.278-4.045 13.568 3.686 27.802 17.254 31.846 108.032 32.154 191.744 115.866 223.949 223.949 4.045 13.568 18.278 21.248 31.846 17.254s21.248-18.278 17.254-31.846c-18.074-60.774-51.507-116.736-96.563-161.843s-101.018-78.49-161.843-96.563c-2.458-0.717-4.915-1.075-7.322-1.075zM384 53.248c-2.406 0-4.864 0.358-7.322 1.075-60.774 18.074-116.736 51.456-161.843 96.563s-78.49 101.018-96.563 161.843c-4.045 13.568 3.686 27.802 17.254 31.846s27.802-3.686 31.846-17.254c32.154-108.032 115.866-191.744 223.949-223.898 13.568-4.045 21.248-18.278 17.254-31.846-3.328-11.11-13.517-18.33-24.525-18.33zM142.848 499.2c-2.406 0-4.864 0.358-7.322 1.075-13.568 4.045-21.248 18.278-17.254 31.846 18.074 60.774 51.507 116.736 96.563 161.843s101.018 78.49 161.843 96.563c13.568 4.045 27.802-3.686 31.846-17.254s-3.686-27.802-17.254-31.846c-108.032-32.154-191.744-115.866-223.898-223.949-3.328-11.11-13.517-18.33-24.525-18.33z" />
<glyph unicode="&#xe931;" glyph-name="gun" d="M998.4 755.2h-25.6v25.6c0 14.131-11.469 25.6-25.6 25.6s-25.6-11.469-25.6-25.6v-25.6h-742.4c-9.677 0-18.586-5.478-22.886-14.131l-51.2-102.4c-3.123-6.246-3.533-13.517-1.178-20.070 4.403-12.288 10.598-25.6 17.101-39.629 8.96-19.251 18.637-40.038 25.088-61.030 0.102-0.41 0.256-0.819 0.358-1.229 4.352-14.387 7.117-28.877 7.117-43.059 0-38.195-28.211-80.026-60.826-128.41-43.469-64.512-92.774-137.574-92.774-229.99 0-14.131 11.469-25.6 25.6-25.6h358.4c14.131 0 25.6 11.469 25.6 25.6s-11.469 25.6-25.6 25.6h-24.218c6.349 62.208 33.843 137.984 63.437 204.8h165.53c39.066 0 79.309 29.030 91.699 66.099l29.184 87.501h186.368c42.342 0 76.8 34.458 76.8 76.8v25.6h25.6c14.131 0 25.6 11.469 25.6 25.6v102.4c0 14.131-11.469 25.6-25.6 25.6zM409.6 704h256v-51.2h-256v51.2zM135.219 316.57c35.789 53.043 69.581 103.168 69.581 157.030 0 8.602-0.717 17.152-1.997 25.6h239.514c-40.55-73.626-123.085-236.339-133.939-358.4h-255.59c8.090 65.485 45.824 121.446 82.432 175.77zM631.91 427.878c-5.427-16.282-25.958-31.078-43.11-31.078h-141.722c22.579 46.387 43.469 83.917 54.016 102.4h11.418c2.048-21.146 8.858-49.51 29.133-68.608 4.966-4.659 11.264-6.963 17.562-6.963 6.81 0 13.568 2.714 18.637 8.038 9.677 10.291 9.216 26.47-1.075 36.198-7.424 7.014-11.008 19.661-12.646 31.386h91.597l-23.757-71.322zM972.8 652.8h-25.6c-14.131 0-25.6-11.469-25.6-25.6v-51.2c0-14.131-11.469-25.6-25.6-25.6h-204.237c-0.051 0-0.051 0-0.102 0h-502.579c-6.656 17.92-14.49 34.816-21.606 50.074-4.198 8.96-8.192 17.613-11.469 25.446l39.014 78.080h163.379v-76.8c0-14.131 11.469-25.6 25.6-25.6h307.2c14.131 0 25.6 11.469 25.6 25.6v76.8h256v-51.2zM230.4 601.6c-6.758 0-13.312 2.714-18.074 7.526s-7.526 11.366-7.526 18.074 2.714 13.363 7.526 18.074c4.762 4.762 11.366 7.526 18.074 7.526s13.363-2.714 18.074-7.526c4.762-4.762 7.526-11.366 7.526-18.074s-2.714-13.312-7.526-18.074c-4.762-4.762-11.366-7.526-18.074-7.526zM179.2 192c-6.758 0-13.312 2.714-18.074 7.526s-7.526 11.366-7.526 18.074 2.714 13.363 7.526 18.074c4.762 4.762 11.366 7.526 18.074 7.526s13.363-2.714 18.074-7.526c4.762-4.762 7.526-11.366 7.526-18.074s-2.714-13.312-7.526-18.074c-4.762-4.762-11.366-7.526-18.074-7.526z" />
</font>
</defs>
</svg>
